<?xml version="1.0" standalone="no"?>
<!DOCTYPE svg PUBLIC "-//W3C//DTD SVG 1.1//EN" "http://www.w3.org/Graphics/SVG/1.1/DTD/svg11.dtd" >
<svg>
<metadata>
Created by FontForge 20120731 at Tue Mar 18 17:21:26 2025
 By www
Copyright (c) 2016 Swiss Typefaces Sa`rl. All rights reserved.
</metadata>
<defs>
<font id="SuisseIntl-Regular" horiz-adv-x="0" >
  <font-face 
    font-family="Suisse Int'l"
    font-weight="400"
    font-stretch="normal"
    units-per-em="1000"
    panose-1="2 11 5 4 0 0 0 0 0 0"
    ascent="774"
    descent="-226"
    x-height="538"
    cap-height="725"
    bbox="-372 -650 2813 1121"
    underline-thickness="70"
    underline-position="-145"
    unicode-range="U+000D-FEFC"
  />
<missing-glyph horiz-adv-x="500" 
d="M0 725h500v-725h-500v725zM250 378l216 328h-433zM19 696v-667l220 333zM481 29v667l-221 -334zM33 19h433l-216 327z" />
    <glyph glyph-name="uniFC43" unicode="&#xfedf;&#xfef0;" horiz-adv-x="865" arabic-form="isolated" 
d="M695 725h85v-534q0 -138 -115 -178q-90 -228 -352 -228q-131 0 -202 69.5t-71 202.5q0 96 45 228h80q-45 -114 -45 -213q0 -101 52.5 -149t159.5 -48q174 0 246 125h-2h-150l15 90h135q64 0 91.5 25t27.5 79v531z" />
    <glyph glyph-name="uniFC86" unicode="&#xfee0;&#xfef0;" horiz-adv-x="894" arabic-form="final" 
d="M893 90q10 0 10 -10v-69q0 -11 -10 -11q-113 0 -165 64q-34 -32 -60 -45q-91 -234 -355 -234q-131 0 -202 69.5t-71 202.5q0 96 45 228h80q-45 -114 -45 -213q0 -101 52.5 -149t159.5 -48q174 0 246 125h-2h-150l15 90h135q72 0 120 40q-7 27 -7 61v534h85v-531
q0 -54 28 -79t91 -25z" />
    <glyph glyph-name="uniFEF5" unicode="&#xfedf;&#xfe82;" horiz-adv-x="589" arabic-form="isolated" 
d="M465 314q89 -80 89 -159q0 -67 -45.5 -111t-135.5 -44h-314l-39 90q115 68 185.5 125t109.5 123l-277 252l4 10h106l201 -182q16 52 16 120v237h85v-237q0 -97 -35 -179zM82 698q-43 0 -49 -39h-55q0 45 24.5 74.5t67.5 29.5q22 0 63.5 -18.5t63.5 -18.5q46 0 80 26
l-1 -66q-33 -25 -77 -25q-23 0 -60.5 18.5t-56.5 18.5zM392 90q36 0 56.5 17.5t20.5 45.5q0 46 -51 92l-44 40q-75 -107 -231 -195h249z" />
    <glyph glyph-name="uniFEF6" unicode="&#xfee0;&#xfe82;" horiz-adv-x="673" arabic-form="final" 
d="M157 701q-43 0 -49 -39h-55q0 45 24.5 74.5t67.5 29.5q23 0 64 -18.5t63 -18.5q46 0 80 26l-1 -66q-33 -25 -77 -25q-23 0 -60.5 18.5t-56.5 18.5zM673 90q10 0 10 -10v-69q0 -11 -10 -11q-104 0 -157 55q-115 -55 -250 -55q-138 0 -241 34v85q96 -27 231 -29
q-2 42 -7 80q-7 42 -97 430h90q82 -367 88 -420q5 -32 2 -88q82 6 148 25q-11 35 -11 74v534h85v-531q0 -54 28 -79t91 -25z" />
    <glyph glyph-name="uniFEF7" unicode="&#xfedf;&#xfe84;" horiz-adv-x="589" arabic-form="isolated" 
d="M213 664h-162q-34 0 -75 -12v58q41 14 71 14q-24 24 -24 57q0 39 27 64.5t67 25.5q32 0 76 -20v-58q-37 15 -63 15q-22 0 -36 -12t-14 -31q0 -17 13.5 -29t33.5 -12h104zM465 314q89 -80 89 -159q0 -67 -45.5 -111t-135.5 -44h-314l-39 90q115 68 185.5 125t109.5 123
l-277 252l4 10h106l201 -182q16 52 16 120v237h85v-237q0 -97 -35 -179zM392 90q36 0 56.5 17.5t20.5 45.5q0 46 -51 92l-44 40q-75 -107 -231 -195h249z" />
    <glyph glyph-name="uniFEF8" unicode="&#xfee0;&#xfe84;" horiz-adv-x="673" arabic-form="final" 
d="M294 664h-162q-34 0 -75 -12v58q41 14 71 14q-24 24 -24 57q0 39 27 64.5t67 25.5q32 0 76 -20v-58q-37 15 -63 15q-22 0 -36 -12t-14 -31q0 -17 13.5 -29t33.5 -12h104zM673 90q10 0 10 -10v-69q0 -11 -10 -11q-104 0 -157 55q-115 -55 -250 -55q-138 0 -241 34v85
q96 -27 231 -29q-2 42 -7 80q-7 42 -97 430h90q82 -367 88 -420q5 -32 2 -88q82 6 148 25q-11 35 -11 74v534h85v-531q0 -54 28 -79t91 -25z" />
    <glyph glyph-name="uniFEF9" unicode="&#xfedf;&#xfe88;" horiz-adv-x="589" arabic-form="isolated" 
d="M465 314q89 -80 89 -159q0 -67 -45.5 -111t-135.5 -44h-314l-39 90q115 68 185.5 125t109.5 123l-277 252l4 10h106l201 -182q16 52 16 120v237h85v-237q0 -97 -35 -179zM392 90q36 0 56.5 17.5t20.5 45.5q0 46 -51 92l-44 40q-75 -107 -231 -195h249zM274 -156
q0 -17 13.5 -29t33.5 -12h105l-18 -60h-162q-34 0 -75 -12v58q41 14 70 14q-24 24 -24 57q0 39 27 64t67 25q35 0 76 -19v-58q-41 15 -63 15t-36 -12t-14 -31z" />
    <glyph glyph-name="uniFEFA" unicode="&#xfee0;&#xfe88;" horiz-adv-x="673" arabic-form="final" 
d="M673 90q10 0 10 -10v-69q0 -11 -10 -11q-104 0 -157 55q-115 -55 -250 -55q-138 0 -241 34v85q96 -27 231 -29q-2 42 -7 80q-7 42 -97 430h90q82 -367 88 -420q5 -32 2 -88q82 6 148 25q-11 35 -11 74v534h85v-531q0 -54 28 -79t91 -25zM264 -156q0 -17 13.5 -29
t33.5 -12h105l-18 -60h-162q-34 0 -75 -12v58q41 14 70 14q-24 24 -24 57q0 39 27 64t67 25q35 0 76 -19v-58q-41 15 -63 15t-36 -12t-14 -31z" />
    <glyph glyph-name="uniFEFB" unicode="&#xfedf;&#xfe8e;" horiz-adv-x="589" arabic-form="isolated" 
d="M465 314q89 -80 89 -159q0 -67 -45.5 -111t-135.5 -44h-314l-39 90q115 68 185.5 125t109.5 123l-277 252l4 10h106l201 -182q16 52 16 120v237h85v-237q0 -97 -35 -179zM392 90q36 0 56.5 17.5t20.5 45.5q0 46 -51 92l-44 40q-75 -107 -231 -195h249z" />
    <glyph glyph-name="uniFEFC" unicode="&#xfee0;&#xfe8e;" horiz-adv-x="673" arabic-form="final" 
d="M673 90q10 0 10 -10v-69q0 -11 -10 -11q-104 0 -157 55q-115 -55 -250 -55q-138 0 -241 34v85q96 -27 231 -29q-2 42 -7 80q-7 42 -97 430h90q82 -367 88 -420q5 -32 2 -88q82 6 148 25q-11 35 -11 74v534h85v-531q0 -54 28 -79t91 -25z" />
    <glyph glyph-name="uni04070407" unicode="&#x407;&#x407;" horiz-adv-x="501" 
d="M100 880v-99h-91v99h91zM296 880v-99h-91v99h91zM492 880v-99h-91v99h91zM198 0h-102v725h102v-725zM405 0h-102v725h102v-725z" />
    <glyph glyph-name="uni04570457" unicode="&#x457;&#x457;" horiz-adv-x="446" 
d="M69 725v-99h-91v99h91zM268 725v-99h-91v99h91zM468 725v-99h-91v99h91zM168 538v-538h-91v538h91zM369 538v-538h-91v538h91z" />
    <glyph glyph-name="uni06440671" unicode="&#xfedf;&#xfb51;" horiz-adv-x="589" 
d="M280 743q0 -47 -40 -73.5t-113 -26.5q-69 0 -144 30l18 54q19 -7 38 -12q48 63 82 89.5t68 26.5q38 0 64.5 -25.5t26.5 -62.5zM465 314q89 -80 89 -159q0 -67 -45.5 -111t-135.5 -44h-314l-39 90q115 68 185.5 125t109.5 123l-277 252l4 10h106l201 -182q16 52 16 120
v237h85v-237q0 -97 -35 -179zM85 706q23 -3 40 -3q87 0 87 40q0 13 -10 21t-24 8q-34 0 -93 -66zM392 90q36 0 56.5 17.5t20.5 45.5q0 46 -51 92l-44 40q-75 -107 -231 -195h249z" />
    <glyph glyph-name="uni06440671.fina" unicode="&#xfee0;&#xfb51;" horiz-adv-x="673" 
d="M333 746q0 -47 -40 -73.5t-113 -26.5q-69 0 -144 30l18 54q19 -7 38 -12q48 63 82 89.5t68 26.5q38 0 64.5 -25.5t26.5 -62.5zM138 709q22 -3 40 -3q87 0 87 40q0 13 -10 21t-24 8q-34 0 -93 -66zM673 90q10 0 10 -10v-69q0 -11 -10 -11q-104 0 -157 55
q-115 -55 -250 -55q-138 0 -241 34v85q96 -27 231 -29q-2 42 -7 80q-7 42 -97 430h90q82 -367 88 -420q5 -32 2 -88q82 6 148 25q-11 35 -11 74v534h85v-531q0 -54 28 -79t91 -25z" />
    <glyph glyph-name="uni066E.init" unicode="&#x66e;" horiz-adv-x="259" 
d="M174 485q30 -200 30 -294q0 -90 -51.5 -140.5t-152.5 -50.5q-10 0 -10 11v69q0 10 10 10q64 0 93 25.5t29 78.5q0 67 -33 291h85z" />
    <glyph glyph-name="uni066E.medi" unicode="&#x66e;" horiz-adv-x="300" 
d="M300 90q10 0 10 -10v-69q0 -11 -10 -11q-89 0 -159 59q-50 -59 -141 -59q-10 0 -10 11v69q0 10 10 10q74 0 101 54q26 53 26 226h78q0 -163 -28 -247q53 -33 123 -33z" />
    <glyph glyph-name="uni066E.fina" unicode="&#x66e;" horiz-adv-x="837" 
d="M837 90q10 0 10 -10v-69q0 -11 -10 -11q-89 0 -159 59q-46 -53 -123 -58q-2 -1 -4 -1h-258q-120 0 -186.5 59.5t-66.5 169.5q0 79 30 211h80q-25 -122 -25 -190q0 -84 43 -122t144 -38h225q74 0 101 54q26 53 26 226h78q0 -163 -28 -247q53 -33 123 -33z" />
    <glyph glyph-name="uni066F.fina" unicode="&#x66f;" horiz-adv-x="760" 
d="M760 90q10 0 10 -10v-69q0 -11 -10 -11h-62q-14 -101 -103 -158t-242 -57q-149 0 -231 67.5t-82 204.5q0 96 45 228h80q-45 -114 -45 -213q0 -100 63.5 -149t197.5 -49q97 0 158 34.5t76 91.5h-81q-121 0 -190.5 61t-69.5 171q0 105 61.5 174t158.5 69q86 0 139 -57.5
t59 -157.5q5 -120 7 -170h61zM359 236q0 -71 46.5 -108.5t134.5 -37.5h78q-1 25 -3 54t-4.5 60.5t-3.5 45.5q-4 66 -35 100.5t-83 34.5q-58 0 -94 -42t-36 -107z" />
    <glyph glyph-name="uni06A1.init" unicode="&#x6a1;" horiz-adv-x="521" 
d="M262 485q91 0 152.5 -65t61.5 -161q0 -120 -71 -189.5t-195 -69.5h-210q-10 2 -10 11v69q0 10 10 10h111q-13 24 -27 46q-45 71 -45 140q0 87 64.5 148.5t158.5 60.5zM219 90q78 0 124.5 41.5t46.5 116.5q0 65 -37.5 105.5t-98.5 40.5q-56 0 -93 -37.5t-37 -91.5
q0 -47 36 -107q23 -38 35 -68h24z" />
    <glyph glyph-name="uni06A1.medi" unicode="&#x6a1;" horiz-adv-x="544" 
d="M544 90q10 0 10 -10v-69q0 -11 -10 -11q-143 0 -268 35q-115 -35 -276 -35q-10 2 -10 11v69q0 10 10 10q87 0 140 6q-86 66 -86 168q0 94 63 157.5t155 63.5q93 0 155 -62.5t62 -157.5q0 -98 -90 -169q55 -6 145 -6zM269 395q-56 0 -93 -37.5t-37 -99.5q0 -52 33 -94.5
t92 -61.5q69 20 104 61t35 95q0 60 -37.5 98.5t-96.5 38.5z" />
    <glyph glyph-name="uni06A1.fina" unicode="&#x6a1;" horiz-adv-x="964" 
d="M964 90q10 0 10 -10v-69q0 -11 -10 -11q-143 0 -268 35q-110 -33 -266 -35h-1h-137q-120 0 -186.5 59t-66.5 169q0 67 21 160h80q-16 -86 -16 -138q0 -84 43 -122t144 -38h109q87 0 140 6q-86 66 -86 168q0 94 63 157.5t155 63.5q93 0 155 -62.5t62 -157.5
q0 -98 -90 -169q55 -6 145 -6zM689 395q-56 0 -93 -37.5t-37 -99.5q0 -52 33 -94.5t92 -61.5q69 20 104 61t35 95q0 60 -37.5 98.5t-96.5 38.5z" />
    <glyph glyph-name="swashkafar.init" unicode="&#x6aa;" horiz-adv-x="801" 
d="M512 430q111 0 177.5 -58.5t66.5 -159.5q0 -94 -61.5 -153t-159.5 -59h-535q-10 0 -10 11v69q0 10 10 10h523q69 0 108.5 32t39.5 88q0 62 -40 96t-114 34h-444l-50 90l251 295h113l-267 -295h392z" />
    <glyph glyph-name="swashkafar.medi" unicode="&#x6aa;" horiz-adv-x="851" 
d="M851 90q10 0 10 -10v-69q0 -11 -10 -11q-88 0 -158 58q-60 -58 -158 -58h-535q-10 0 -10 11v69q0 10 10 10h523q69 0 108.5 32t39.5 88q0 62 -40 96t-114 34h-444l-50 90l251 295h113l-267 -295h392q111 0 177.5 -58.5t66.5 -159.5q0 -50 -19 -94q48 -28 114 -28z" />
    <glyph glyph-name="swashkafar.fina" unicode="&#x6aa;" horiz-adv-x="949" 
d="M949 90q10 0 10 -10v-69q0 -11 -10 -11q-88 0 -156 56q-62 -56 -157 -56h-399q-65 0 -112 16.5t-103 57.5l44 73q48 -31 86 -44t85 -13h387q69 0 108.5 32t39.5 88q0 62 -40 96t-114 34h-444l-50 90l251 295h113l-267 -295h392q111 0 177.5 -58.5t66.5 -159.5
q0 -52 -20 -95q47 -27 112 -27z" />
    <glyph glyph-name="uni06C2.fina" unicode="&#x6c2;" horiz-adv-x="536" 
d="M506 600h-162q-34 0 -75 -12v58q41 14 71 14q-24 24 -24 57q0 39 27 64.5t67 25.5q32 0 76 -20v-58q-38 15 -63 15q-22 0 -36 -12t-14 -31q0 -17 13.5 -29t33.5 -12h104zM536 90q10 0 10 -10v-69q0 -11 -10 -11q-86 0 -131 50q-91 -50 -163 -50q-90 0 -146 53t-56 139
q0 33 9 65.5t32.5 68t58.5 64t92.5 51.5t129.5 33v64h85v-357q0 -46 20 -68.5t69 -22.5zM244 90q66 0 127 26q-9 33 -9 73v204q-109 -16 -173 -67.5t-64 -126.5q0 -50 32 -79.5t87 -29.5z" />
    <glyph glyph-name="uni06C3.fina" unicode="&#x6c3;" horiz-adv-x="620" 
d="M295 593l-75 -73l-76 75l75 76l76 -74l75 74l76 -76l-76 -75zM620 90q10 0 10 -10v-69q0 -11 -10 -11q-64 0 -109 43t-84 144q-33 86 -59.5 119.5t-70.5 33.5t-77 -37t-76 -133l-37 -84l-72 34l37 84q53 122 105 174t120 52q67 0 111 -43.5t90 -150.5q37 -87 60 -113
q27 -33 62 -33z" />
    <glyph glyph-name="uniFB51" unicode="&#x671;" horiz-adv-x="289" arabic-form="final" 
d="M271 725q0 -47 -40 -73.5t-113 -26.5q-69 0 -144 30l18 54q19 -7 38 -12q48 63 82 89.5t68 26.5q38 0 64.5 -25.5t26.5 -62.5zM76 688q22 -3 40 -3q87 0 87 40q0 13 -10 21t-24 8q-34 0 -93 -66zM289 90q10 0 10 -10v-69q0 -11 -10 -11q-101 0 -152.5 50.5t-51.5 140.5
v409h85v-406q0 -54 28 -79t91 -25z" />
    <glyph glyph-name="uniFB57" unicode="&#x67e;" horiz-adv-x="837" arabic-form="final" 
d="M837 90q10 0 10 -10v-69q0 -11 -10 -11q-89 0 -159 59q-46 -53 -123 -58q-2 -1 -4 -1h-258q-120 0 -186.5 59.5t-66.5 169.5q0 79 30 211h80q-25 -122 -25 -190q0 -84 43 -122t144 -38h225q74 0 101 54q26 53 26 226h78q0 -163 -28 -247q53 -33 123 -33zM349 -76l77 -75
l-76 -77l-76 77zM437 -151l77 75l76 -75l-76 -77zM373 -274l60 61l61 -61l-60 -60z" />
    <glyph glyph-name="uniFB58" unicode="&#x67e;" horiz-adv-x="333" arabic-form="initial" 
d="M252 485q30 -210 30 -294q0 -90 -51.5 -140.5t-152.5 -50.5h-78q-10 0 -10 11v69q0 10 10 10h78q64 0 92.5 25.5t28.5 78.5q0 74 -32 291h85zM46 -73l77 -75l-76 -77l-76 77zM211 -73l76 -75l-76 -77l-77 77zM130 -210l61 -61l-60 -60l-61 60z" />
    <glyph glyph-name="uniFB59" unicode="&#x67e;" horiz-adv-x="370" arabic-form="medial" 
d="M370 90q10 0 10 -10v-69q0 -11 -10 -11q-98 0 -185 78q-57 -78 -185 -78q-10 0 -10 11v69q0 10 10 10q98 0 129 53q17 29 22 76.5t5 150.5h79q0 -155 -20 -226q73 -54 155 -54zM80 -75l77 -75l-76 -77l-76 77zM168 -150l77 75l76 -75l-76 -77zM104 -273l60 61l61 -61
l-60 -60z" />
    <glyph glyph-name="uniFB67" unicode="&#x679;" horiz-adv-x="837" arabic-form="final" 
d="M315 440l-33 58h63v172h55v-96l-2 -13q68 77 124 77q42 0 70 -26.5t28 -64.5q0 -49 -48 -78t-131 -29h-126zM509 581q-23 0 -45 -17t-71 -66h46q114 0 114 49q0 15 -12 24.5t-32 9.5zM837 90q10 0 10 -10v-69q0 -11 -10 -11q-89 0 -159 59q-46 -53 -123 -58q-2 -1 -4 -1
h-258q-120 0 -186.5 59.5t-66.5 169.5q0 79 30 211h80q-25 -122 -25 -190q0 -84 43 -122t144 -38h225q74 0 101 54q26 53 26 226h78q0 -163 -28 -247q53 -33 123 -33z" />
    <glyph glyph-name="uniFB68" unicode="&#x679;" horiz-adv-x="380" arabic-form="initial" 
d="M257 736q42 0 70 -26.5t28 -64.5q0 -49 -48 -78t-131 -29h-126l-33 58h63v172h55v-96l-2 -13q68 77 124 77zM174 596q114 0 114 49q0 15 -12 24.5t-32 9.5q-23 0 -45 -17t-71 -66h46zM167 485h85q30 -210 30 -294q0 -90 -51.5 -140.5t-152.5 -50.5h-78q-10 0 -10 11v69
q0 10 10 10h78q64 0 92.5 25.5t28.5 78.5q0 74 -32 291z" />
    <glyph glyph-name="uniFB69" unicode="&#x679;" horiz-adv-x="370" arabic-form="medial" 
d="M50 440l-33 58h63v172h55v-96l-2 -13q68 77 124 77q42 0 70 -26.5t28 -64.5q0 -49 -48 -78t-131 -29h-126zM244 581q-23 0 -45 -17t-71 -66h46q114 0 114 49q0 15 -12 24.5t-32 9.5zM370 90q10 0 10 -10v-69q0 -11 -10 -11q-98 0 -185 78q-57 -78 -185 -78q-10 0 -10 11
v69q0 10 10 10q98 0 129 53q17 29 22 76.5t5 150.5h79q0 -155 -20 -226q73 -54 155 -54z" />
    <glyph glyph-name="uniFB6B" unicode="&#x6a4;" horiz-adv-x="964" arabic-form="final" 
d="M754 755l-60 -60l-61 60l60 61zM687 634l-76 -75l-76 75l75 77zM775 559l-77 75l77 77l76 -77zM964 90q10 0 10 -10v-69q0 -11 -10 -11q-143 0 -268 35q-110 -33 -266 -35h-1h-137q-120 0 -186.5 59t-66.5 169q0 67 21 160h80q-16 -86 -16 -138q0 -84 43 -122t144 -38
h109q87 0 140 6q-86 66 -86 168q0 94 63 157.5t155 63.5q93 0 155 -62.5t62 -157.5q0 -98 -90 -169q55 -6 145 -6zM689 395q-56 0 -93 -37.5t-37 -99.5q0 -52 33 -94.5t92 -61.5q69 20 104 61t35 95q0 60 -37.5 98.5t-96.5 38.5z" />
    <glyph glyph-name="uniFB6C" unicode="&#x6a4;" horiz-adv-x="521" arabic-form="initial" 
d="M331 755l-60 -60l-61 60l60 61zM264 634l-76 -75l-76 75l75 77zM352 559l-77 75l77 77l76 -77zM262 485q91 0 152.5 -65t61.5 -161q0 -120 -71 -189.5t-195 -69.5h-210q-10 2 -10 11v69q0 10 10 10h111q-13 24 -27 46q-45 71 -45 140q0 87 64.5 148.5t158.5 60.5zM219 90
q78 0 124.5 41.5t46.5 116.5q0 65 -37.5 105.5t-98.5 40.5q-56 0 -93 -37.5t-37 -91.5q0 -47 36 -107q23 -38 35 -68h24z" />
    <glyph glyph-name="uniFB6D" unicode="&#x6a4;" horiz-adv-x="544" arabic-form="medial" 
d="M336 755l-60 -60l-61 60l60 61zM269 634l-76 -75l-76 75l75 77zM357 559l-77 75l77 77l76 -77zM544 90q10 0 10 -10v-69q0 -11 -10 -11q-143 0 -268 35q-115 -35 -276 -35q-10 2 -10 11v69q0 10 10 10q87 0 140 6q-86 66 -86 168q0 94 63 157.5t155 63.5q93 0 155 -62.5
t62 -157.5q0 -98 -90 -169q55 -6 145 -6zM269 395q-56 0 -93 -37.5t-37 -99.5q0 -52 33 -94.5t92 -61.5q69 20 104 61t35 95q0 60 -37.5 98.5t-96.5 38.5z" />
    <glyph glyph-name="uniFB7B" unicode="&#x686;" horiz-adv-x="651" arabic-form="final" 
d="M651 90q10 0 10 -10v-69q0 -11 -10 -11q-89 0 -137 38.5t-48 115.5v58q-143 -24 -239.5 -92t-96.5 -156q0 -43 18 -78.5t60 -74.5l-78 -33q-85 72 -85 178q0 127 115.5 215.5t315.5 111.5q-46 27 -103 72t-97 69t-81 24q-51 0 -120 -24v80q55 34 125 34q38 0 75 -16.5
t73 -44t72.5 -57.5t87.5 -61.5t104 -51.5l-23 -85q-20 0 -60 -2v-52q0 -78 122 -78zM318 -36l77 -75l-76 -77l-76 77zM406 -111l77 75l76 -75l-76 -77zM342 -234l60 61l61 -61l-60 -60z" />
    <glyph glyph-name="uniFB7C" unicode="&#x686;" horiz-adv-x="609" arabic-form="initial" 
d="M189 475q38 0 73.5 -14.5t69 -39t67.5 -51t83 -56t102 -48.5l-23 -85q-65 -12 -118.5 -36t-91 -48t-81 -46.5t-111 -36.5t-158.5 -14q-11 0 -11 11v69q0 10 11 10q87 0 159.5 15.5t113.5 34.5t97.5 47t97.5 42q-52 26 -108 68.5t-95 65t-82 22.5q-51 0 -120 -24v80
q55 34 125 34zM202 -78l77 -75l-76 -77l-76 77zM290 -153l77 75l76 -75l-76 -77zM226 -276l60 61l61 -61l-60 -60z" />
    <glyph glyph-name="uniFB7D" unicode="&#x686;" horiz-adv-x="631" arabic-form="medial" 
d="M631 90q10 0 10 -10v-69q0 -11 -10 -11q-171 0 -178 150q-40 -16 -92 -47t-88 -51t-107.5 -36t-164.5 -16q-11 0 -11 11v69q0 10 11 10q87 0 159.5 15.5t113.5 34.5t97.5 47t97.5 42q-52 26 -108 68.5t-95 65t-82 22.5q-51 0 -120 -24v80q55 34 125 34q38 0 73.5 -14.5
t69 -39t67.5 -51t83 -56t102 -48.5l-23 -85q-22 -4 -46 -11q0 -80 116 -80zM202 -78l77 -75l-76 -77l-76 77zM290 -153l77 75l76 -75l-76 -77zM226 -276l60 61l61 -61l-60 -60z" />
    <glyph glyph-name="uniFB89" unicode="&#x688;" horiz-adv-x="518" arabic-form="final" 
d="M127 538l-33 58h63v172h55v-96l-2 -13q68 77 124 77q42 0 70 -26.5t28 -64.5q0 -49 -48 -78t-131 -29h-126zM321 679q-23 0 -45 -17t-71 -66h46q114 0 114 49q0 15 -12 24.5t-32 9.5zM518 90q10 0 10 -10v-69q0 -11 -10 -11q-77 0 -128 52q-90 -52 -194 -52
q-50 0 -84 6.5t-97 27.5v85q99 -29 181 -29t151 21q-12 23 -26 63q-40 122 -74 311h90q33 -206 64 -299q17 -50 45 -73t72 -23z" />
    <glyph glyph-name="uniFB8B" unicode="&#x698;" horiz-adv-x="341" arabic-form="final" 
d="M214 714l-60 -60l-61 60l60 61zM147 593l-76 -75l-76 75l75 77zM235 518l-77 75l77 77l76 -77zM340 90q10 0 10 -10v-69q0 -11 -10 -11q-70 0 -102 45v-19q0 -116 -68.5 -178.5t-184.5 -62.5v82q77 0 124.5 42t47.5 121q0 138 -37 410h85q17 -120 26 -243l3 -22
q6 -51 33 -68t73 -17z" />
    <glyph glyph-name="uniFB8D" unicode="&#x691;" horiz-adv-x="341" arabic-form="final" 
d="M18 495l-33 58h63v172h55v-96l-2 -13q68 77 124 77q42 0 70 -26.5t28 -64.5q0 -49 -48 -78t-131 -29h-126zM212 636q-23 0 -45 -17t-71 -66h46q114 0 114 49q0 15 -12 24.5t-32 9.5zM340 90q10 0 10 -10v-69q0 -11 -10 -11q-70 0 -102 45v-19q0 -116 -68.5 -178.5
t-184.5 -62.5v82q77 0 124.5 42t47.5 121q0 138 -37 410h85q17 -120 26 -243l3 -22q6 -51 33 -68t73 -17z" />
    <glyph glyph-name="uniFB8F" unicode="&#x6a9;" horiz-adv-x="987" arabic-form="final" 
d="M987 90q10 0 10 -10v-69q0 -11 -10 -11q-96 0 -172 71q-73 -71 -210 -71h-312q-120 0 -186.5 59.5t-66.5 169.5q0 79 30 211h80q-25 -122 -25 -190q0 -84 43 -122t144 -38h301q74 0 122 30t48 76q0 41 -37 75t-124 73l-240 106v68l350 277h128v-4l-370 -291l174 -77
q204 -89 204 -223q0 -35 -13 -71q56 -39 132 -39z" />
    <glyph glyph-name="uniFB90" unicode="&#x6a9;" horiz-adv-x="581" arabic-form="initial" 
d="M342 423q204 -89 204 -223q0 -90 -71 -145t-192 -55h-283q-10 0 -10 11v69q0 10 10 10h291q74 0 122 30t48 76q0 41 -37 75t-124 73l-240 106v68l350 277h128v-4l-370 -291z" />
    <glyph glyph-name="uniFB91" unicode="&#x6a9;" horiz-adv-x="649" arabic-form="medial" 
d="M649 90q10 0 10 -10v-69q0 -11 -10 -11q-91 0 -164 63q-72 -63 -202 -63h-283q-10 0 -10 11v69q0 10 10 10h291q74 0 122 30t48 76q0 41 -37 75t-124 73l-240 106v68l350 277h128v-4l-370 -291l174 -77q204 -89 204 -223q0 -42 -17 -79q51 -31 120 -31z" />
    <glyph glyph-name="uniFB93" unicode="&#x6af;" horiz-adv-x="987" arabic-form="final" 
d="M987 90q10 0 10 -10v-69q0 -11 -10 -11q-96 0 -172 71q-73 -71 -210 -71h-312q-120 0 -186.5 59.5t-66.5 169.5q0 79 30 211h80q-25 -122 -25 -190q0 -84 43 -122t144 -38h301q74 0 122 30t48 76q0 41 -37 75t-124 73l-240 106v68l350 277h128v-4l-370 -291l174 -77
q204 -89 204 -223q0 -35 -13 -71q56 -39 132 -39zM568 791l-261 -209l-37 44l208 169h90v-4z" />
    <glyph glyph-name="uniFB94" unicode="&#x6af;" horiz-adv-x="716" arabic-form="initial" 
d="M477 423q204 -89 204 -223q0 -90 -71 -145t-192 -55h-418q-10 0 -10 11v69q0 10 10 10h426q74 0 122 30t48 76q0 41 -37 75t-124 73l-240 106v68l350 277h128v-4l-370 -291zM350 791l-261 -209l-37 44l208 169h90v-4z" />
    <glyph glyph-name="uniFB95" unicode="&#x6af;" horiz-adv-x="784" arabic-form="medial" 
d="M784 90q10 0 10 -10v-69q0 -11 -10 -11q-91 0 -164 63q-72 -63 -202 -63h-418q-10 0 -10 11v69q0 10 10 10h426q74 0 122 30t48 76q0 41 -37 75t-124 73l-240 106v68l350 277h128v-4l-370 -291l174 -77q204 -89 204 -223q0 -42 -17 -79q51 -31 120 -31zM350 791
l-261 -209l-37 44l208 169h90v-4z" />
    <glyph glyph-name="uniFB9F" unicode="&#x6ba;" horiz-adv-x="677" arabic-form="final" 
d="M676 90q10 0 10 -10v-69q0 -11 -10 -11q-74 0 -106 51q-12 -123 -83 -194.5t-199 -71.5q-118 0 -183 71t-65 201q0 96 45 228h80q-45 -114 -45 -213q0 -94 43.5 -145.5t132.5 -51.5q101 0 148 54.5t47 169.5q0 78 -39 341h85q26 -173 32 -255l1 -10q6 -51 33 -68t73 -17z
" />
    <glyph glyph-name="uniFBA7" unicode="&#x6c1;" horiz-adv-x="620" arabic-form="final" 
d="M297 430q67 0 111 -43.5t90 -150.5q37 -87 60 -113q27 -33 62 -33q10 0 10 -10v-69q0 -11 -10 -11q-64 0 -109 43t-84 144q-33 86 -59.5 119.5t-70.5 33.5t-77 -37t-76 -133l-37 -84l-72 34l37 84q53 122 105 174t120 52z" />
    <glyph glyph-name="uniFBA8" unicode="&#x6c1;" horiz-adv-x="274" arabic-form="initial" 
d="M174 485q30 -200 30 -294q0 -90 -51.5 -140.5t-152.5 -50.5q-10 0 -10 11v69q0 10 10 10q64 0 93 25.5t29 78.5q0 67 -33 291h85zM157 -62l-50 -108h55l-18 -105h-110v103l54 110h69z" />
    <glyph glyph-name="uniFBA9" unicode="&#x6c1;" horiz-adv-x="725" arabic-form="medial" 
d="M725 90q10 0 10 -11v-69q0 -10 -10 -10h-113q-106 0 -106 -130v-63l-70 -82q-158 0 -232.5 74t-74.5 230v12q-46 -41 -129 -41q-10 0 -10 11v69q0 10 10 10q32 0 58.5 6t48.5 25.5t22 50.5v198h85v-347q0 -103 51.5 -153.5t160.5 -54.5v65q0 100 48.5 155t137.5 55h113z
M685 -62l-50 -108h55l-18 -105h-110v103l54 110h69z" />
    <glyph glyph-name="uniFBAB" unicode="&#x6be;" horiz-adv-x="617" arabic-form="final" 
d="M617 90q10 0 10 -11v-69q0 -10 -10 -10q-49 0 -97 17q39 -49 39 -97q0 -61 -45.5 -98t-121.5 -37q-83 0 -145.5 45t-93.5 125q-45 -28 -89 -65l-49 63q59 54 116 88q-5 38 -5 71q0 123 54.5 239.5t155.5 208.5h67q68 -63 109 -137t41 -142q0 -101 -82 -169
q59 -22 146 -22zM210 126q0 -16 2 -42q44 20 94 39q162 58 162 155q0 107 -106 207q-67 -62 -109.5 -158t-42.5 -201zM394 -126q40 0 63.5 15.5t23.5 44.5q0 58 -77 134q-36 -17 -73 -30q-56 -19 -100 -40q23 -61 67 -92.5t96 -31.5z" />
    <glyph glyph-name="uniFBAC" unicode="&#x6be;" horiz-adv-x="752" arabic-form="initial" 
d="M239 670q220 0 344 -101t124 -267q0 -88 -54 -236l-85 -79q-134 0 -284 51q-114 -38 -284 -38q-10 2 -10 11v69q0 10 10 10q89 0 139 7q-85 65 -85 167q0 94 62 157.5t153 63.5q94 0 154.5 -62.5t60.5 -157.5q0 -100 -92 -171q99 -17 178 -17q51 109 51 217
q0 119 -97.5 202.5t-285.5 83.5zM266 395q-55 0 -91 -37.5t-36 -99.5q0 -52 32.5 -94.5t89.5 -61.5q68 20 102.5 61t34.5 95q0 60 -36.5 98.5t-95.5 38.5z" />
    <glyph glyph-name="uniFBAD" unicode="&#x6be;" horiz-adv-x="553" arabic-form="medial" 
d="M553 90q10 0 10 -11v-69q0 -10 -10 -10q-48 0 -96 17q38 -50 38 -97q0 -61 -45.5 -98t-121.5 -37q-94 0 -162.5 59t-91.5 158q-48 -2 -74 -2q-10 0 -10 11v69q0 10 10 10q43 0 63 1v8q0 119 51.5 242.5t157.5 218.5h67q68 -59 109 -133t41 -146q0 -103 -78 -170
q60 -21 142 -21zM143 118v-20q129 17 195 64t66 116q0 109 -105 207q-76 -68 -116 -170.5t-40 -196.5zM331 -126q40 0 63.5 15.5t23.5 44.5q0 57 -75 131q-76 -39 -185 -54q21 -68 68.5 -102.5t104.5 -34.5z" />
    <glyph glyph-name="uniFBAF" unicode="&#x6d2;" horiz-adv-x="734" arabic-form="final" 
d="M734 90q10 0 10 -10v-69q0 -11 -10 -11h-494q-110 0 -110 -63q0 -62 135 -62h348l-38 -90h-286q-125 0 -184.5 36.5t-59.5 113.5q0 155 222 155h467z" />
    <glyph glyph-name="uniFBB1" unicode="&#x6d3;" horiz-adv-x="734" arabic-form="final" 
d="M439 229h-125q-48 0 -106 -17v70q39 15 60 17q-22 23 -22 55q0 41 28.5 68.5t76.5 27.5q35 0 73 -19v-67q-42 13 -68 13q-21 0 -34.5 -10t-13.5 -27q0 -38 61 -38h92zM734 90q10 0 10 -10v-69q0 -11 -10 -11h-494q-110 0 -110 -63q0 -62 135 -62h348l-38 -90h-286
q-125 0 -184.5 36.5t-59.5 113.5q0 155 222 155h467z" />
    <glyph glyph-name="uniFBFD" unicode="&#x6cc;" horiz-adv-x="679" arabic-form="final" 
d="M679 90q10 0 10 -10v-69q0 -11 -10 -11h-9q-93 -215 -347 -215q-135 0 -209 69.5t-74 202.5q0 96 45 228h80q-45 -114 -45 -213q0 -101 55 -149t167 -48q178 0 251 133q-48 9 -108 26v85q130 -29 194 -29z" />
    <glyph glyph-name="uniFBFE" unicode="&#x6cc;" horiz-adv-x="333" arabic-form="initial" 
d="M0 0q-10 0 -10 11v69q0 10 10 10h78q64 0 92.5 25.5t28.5 78.5q0 74 -32 291h85q30 -210 30 -294q0 -90 -51.5 -140.5t-152.5 -50.5h-78zM285 -153l-76 -76l-75 74l-75 -74l-76 76l75 75l76 -73l75 73z" />
    <glyph glyph-name="uniFBFF" unicode="&#x6cc;" horiz-adv-x="370" arabic-form="medial" 
d="M370 90q10 0 10 -10v-69q0 -11 -10 -11q-98 0 -185 78q-57 -78 -185 -78q-10 0 -10 11v69q0 10 10 10q98 0 129 53q17 29 22 76.5t5 150.5h79q0 -155 -20 -226q73 -54 155 -54zM169 -151l75 73l76 -75l-76 -76l-75 74l-75 -74l-76 76l75 75z" />
    <glyph glyph-name="uniFC02" unicode="&#xfc02;" horiz-adv-x="542" arabic-form="isolated" 
d="M496 605h-125q-48 0 -106 -17v70q39 15 60 17q-22 23 -22 55q0 41 28.5 68.5t76.5 27.5q35 0 73 -19v-67q-42 13 -68 13q-21 0 -34.5 -10t-13.5 -27q0 -38 61 -38h92zM356 291q0 -81 78 -157q40 -20 73 -42l-43 -79q-72 13 -131 63q-65 24 -125 24q-46 0 -67 -22t-21 -72
q0 -76 33 -281h-85q-33 206 -33 292q0 80 46.5 126.5t120.5 46.5q46 0 105 -16q-36 64 -36 128q0 133 131 230h10l53 -54q-60 -52 -84.5 -94t-24.5 -93z" />
    <glyph glyph-name="uniFC03" unicode="&#xfc03;" horiz-adv-x="881" arabic-form="isolated" 
d="M765 609h92l-22 -73h-125q-48 0 -106 -17v70q39 15 60 17q-22 23 -22 55q0 41 28.5 68.5t76.5 27.5q35 0 73 -19v-67q-42 13 -68 13q-21 0 -34.5 -10t-13.5 -27q0 -38 61 -38zM695 485h85q30 -200 30 -294q0 -160 -148 -186q-92 -220 -344 -220q-135 0 -206.5 69
t-71.5 203q0 96 45 228h80q-45 -114 -45 -213q0 -102 53 -149.5t164 -47.5q170 0 241 125h-152l15 90h165q64 0 93 25.5t29 78.5q0 67 -33 291z" />
    <glyph glyph-name="uniFC04" unicode="&#xfc04;" horiz-adv-x="881" arabic-form="isolated" 
d="M765 609h92l-22 -73h-125q-48 0 -106 -17v70q39 15 60 17q-22 23 -22 55q0 41 28.5 68.5t76.5 27.5q35 0 73 -19v-67q-42 13 -68 13q-21 0 -34.5 -10t-13.5 -27q0 -38 61 -38zM695 485h85q30 -200 30 -294q0 -160 -148 -186q-92 -220 -344 -220q-135 0 -206.5 69
t-71.5 203q0 96 45 228h80q-45 -114 -45 -213q0 -102 53 -149.5t164 -47.5q170 0 241 125h-152l15 90h165q64 0 93 25.5t29 78.5q0 67 -33 291zM408 -347l75 73l76 -75l-76 -76l-75 74l-75 -74l-76 76l75 75z" />
    <glyph glyph-name="uniFC08" unicode="&#xfc08;" horiz-adv-x="542" arabic-form="isolated" 
d="M434 134q40 -20 73 -42l-43 -79q-72 13 -131 63q-65 24 -125 24q-46 0 -67 -22t-21 -72q0 -76 33 -281h-85q-33 206 -33 292q0 80 46.5 126.5t120.5 46.5q46 0 105 -16q-36 64 -36 128q0 133 131 230h10l53 -54q-60 -52 -84.5 -94t-24.5 -93q0 -81 78 -157zM243 -153
l75 75l77 -75l-75 -76z" />
    <glyph glyph-name="uniFC09" unicode="&#xfc09;" horiz-adv-x="871" arabic-form="isolated" 
d="M810 191q0 -160 -148 -186q-92 -220 -344 -220q-135 0 -206.5 69t-71.5 203q0 96 45 228h80q-45 -114 -45 -213q0 -102 53 -149.5t164 -47.5q170 0 241 125h-152l15 90h165q64 0 93 25.5t29 78.5q0 67 -33 291h85q30 -200 30 -294zM653 -153l75 75l77 -75l-75 -76z" />
    <glyph glyph-name="uniFC0A" unicode="&#xfc0a;" horiz-adv-x="871" arabic-form="isolated" 
d="M810 191q0 -160 -148 -186q-92 -220 -344 -220q-135 0 -206.5 69t-71.5 203q0 96 45 228h80q-45 -114 -45 -213q0 -102 53 -149.5t164 -47.5q170 0 241 125h-152l15 90h165q64 0 93 25.5t29 78.5q0 67 -33 291h85q30 -200 30 -294zM653 -153l75 75l77 -75l-75 -76z
M408 -347l75 73l76 -75l-76 -76l-75 74l-75 -74l-76 76l75 75z" />
    <glyph glyph-name="uniFC0E" unicode="&#xfc0e;" horiz-adv-x="542" arabic-form="isolated" 
d="M409 670l-75 -73l-76 75l75 76l76 -74l75 74l76 -76l-76 -75zM356 291q0 -81 78 -157q40 -20 73 -42l-43 -79q-72 13 -131 63q-65 24 -125 24q-46 0 -67 -22t-21 -72q0 -76 33 -281h-85q-33 206 -33 292q0 80 46.5 126.5t120.5 46.5q46 0 105 -16q-36 64 -36 128
q0 133 131 230h10l53 -54q-60 -52 -84.5 -94t-24.5 -93z" />
    <glyph glyph-name="uniFC0F" unicode="&#xfc0f;" horiz-adv-x="909" arabic-form="isolated" 
d="M734 635l-75 -73l-76 75l75 76l76 -74l75 74l76 -76l-76 -75zM695 485h85q30 -200 30 -294q0 -160 -148 -186q-92 -220 -344 -220q-135 0 -206.5 69t-71.5 203q0 96 45 228h80q-45 -114 -45 -213q0 -102 53 -149.5t164 -47.5q170 0 241 125h-152l15 90h165q64 0 93 25.5
t29 78.5q0 67 -33 291z" />
    <glyph glyph-name="uniFC10" unicode="&#xfc10;" horiz-adv-x="909" arabic-form="isolated" 
d="M734 635l-75 -73l-76 75l75 76l76 -74l75 74l76 -76l-76 -75zM695 485h85q30 -200 30 -294q0 -160 -148 -186q-92 -220 -344 -220q-135 0 -206.5 69t-71.5 203q0 96 45 228h80q-45 -114 -45 -213q0 -102 53 -149.5t164 -47.5q170 0 241 125h-152l15 90h165q64 0 93 25.5
t29 78.5q0 67 -33 291zM408 -347l75 73l76 -75l-76 -76l-75 74l-75 -74l-76 76l75 75z" />
    <glyph glyph-name="uniFC12" unicode="&#xfc12;" horiz-adv-x="542" arabic-form="isolated" 
d="M471 806l-60 -60l-61 60l60 61zM404 685l-76 -75l-76 75l75 77zM492 610l-77 75l77 77l76 -77zM356 291q0 -81 78 -157q40 -20 73 -42l-43 -79q-72 13 -131 63q-65 24 -125 24q-46 0 -67 -22t-21 -72q0 -76 33 -281h-85q-33 206 -33 292q0 80 46.5 126.5t120.5 46.5
q46 0 105 -16q-36 64 -36 128q0 133 131 230h10l53 -54q-60 -52 -84.5 -94t-24.5 -93z" />
    <glyph glyph-name="uniFC13" unicode="&#xfc13;" horiz-adv-x="918" arabic-form="isolated" 
d="M796 754l-60 -60l-61 60l60 61zM729 633l-76 -75l-76 75l75 77zM817 710l76 -77l-76 -75l-77 75zM695 485h85q30 -200 30 -294q0 -160 -148 -186q-92 -220 -344 -220q-135 0 -206.5 69t-71.5 203q0 96 45 228h80q-45 -114 -45 -213q0 -102 53 -149.5t164 -47.5
q170 0 241 125h-152l15 90h165q64 0 93 25.5t29 78.5q0 67 -33 291z" />
    <glyph glyph-name="uniFC14" unicode="&#xfc14;" horiz-adv-x="918" arabic-form="isolated" 
d="M796 754l-60 -60l-61 60l60 61zM729 633l-76 -75l-76 75l75 77zM817 710l76 -77l-76 -75l-77 75zM695 485h85q30 -200 30 -294q0 -160 -148 -186q-92 -220 -344 -220q-135 0 -206.5 69t-71.5 203q0 96 45 228h80q-45 -114 -45 -213q0 -102 53 -149.5t164 -47.5
q170 0 241 125h-152l15 90h165q64 0 93 25.5t29 78.5q0 67 -33 291zM408 -347l75 73l76 -75l-76 -76l-75 74l-75 -74l-76 76l75 75z" />
    <glyph glyph-name="uniFC31" unicode="&#xfc31;" horiz-adv-x="861" arabic-form="isolated" 
d="M611 803l77 -76l-75 -75l-77 75zM611 590q84 0 138 -55t59 -147q8 -110 8 -182q0 -160 -152 -196q-91 -225 -351 -225q-131 0 -202 69.5t-71 202.5q0 96 45 228h80q-45 -114 -45 -213q0 -101 52.5 -149t159.5 -48q172 0 246 125h-157l15 90h147q79 0 113 27.5t37 92.5
q-65 -30 -124 -30q-92 0 -144 49.5t-52 142.5q0 95 56.5 156.5t141.5 61.5zM605 500q-46 0 -76.5 -34.5t-30.5 -89.5q0 -57 33 -86.5t91 -29.5q59 0 108 17q-1 21 -4 58.5t-3 43.5q-4 58 -36 89.5t-82 31.5z" />
    <glyph glyph-name="uniFC32" unicode="&#xfc32;" horiz-adv-x="861" arabic-form="isolated" 
d="M683 727l-75 -75l-77 75l75 76zM808 388q8 -110 8 -182q0 -160 -152 -196q-91 -225 -351 -225q-131 0 -202 69.5t-71 202.5q0 96 45 228h80q-45 -114 -45 -213q0 -101 52.5 -149t159.5 -48q172 0 246 125h-157l15 90h147q79 0 113 27.5t37 92.5q-65 -30 -124 -30
q-92 0 -144 49.5t-52 142.5q0 95 56.5 156.5t141.5 61.5q84 0 138 -55t59 -147zM622 260q59 0 108 17q-1 21 -4 58.5t-3 43.5q-4 58 -36 89.5t-82 31.5q-46 0 -76.5 -34.5t-30.5 -89.5q0 -57 33 -86.5t91 -29.5zM378 -347l75 73l76 -75l-76 -76l-75 74l-75 -74l-76 76l75 75
z" />
    <glyph glyph-name="uniFC35" unicode="&#xfc35;" horiz-adv-x="861" arabic-form="isolated" 
d="M614 726l-75 -73l-76 75l75 76l76 -74l75 74l76 -76l-76 -75zM808 388q8 -110 8 -182q0 -160 -152 -196q-91 -225 -351 -225q-131 0 -202 69.5t-71 202.5q0 96 45 228h80q-45 -114 -45 -213q0 -101 52.5 -149t159.5 -48q172 0 246 125h-157l15 90h147q79 0 113 27.5
t37 92.5q-65 -30 -124 -30q-92 0 -144 49.5t-52 142.5q0 95 56.5 156.5t141.5 61.5q84 0 138 -55t59 -147zM622 260q59 0 108 17q-1 21 -4 58.5t-3 43.5q-4 58 -36 89.5t-82 31.5q-46 0 -76.5 -34.5t-30.5 -89.5q0 -57 33 -86.5t91 -29.5z" />
    <glyph glyph-name="uniFC36" unicode="&#xfc36;" horiz-adv-x="861" arabic-form="isolated" 
d="M614 726l-75 -73l-76 75l75 76l76 -74l75 74l76 -76l-76 -75zM808 388q8 -110 8 -182q0 -160 -152 -196q-91 -225 -351 -225q-131 0 -202 69.5t-71 202.5q0 96 45 228h80q-45 -114 -45 -213q0 -101 52.5 -149t159.5 -48q172 0 246 125h-157l15 90h147q79 0 113 27.5
t37 92.5q-65 -30 -124 -30q-92 0 -144 49.5t-52 142.5q0 95 56.5 156.5t141.5 61.5q84 0 138 -55t59 -147zM622 260q59 0 108 17q-1 21 -4 58.5t-3 43.5q-4 58 -36 89.5t-82 31.5q-46 0 -76.5 -34.5t-30.5 -89.5q0 -57 33 -86.5t91 -29.5zM393 -347l75 73l76 -75l-76 -76
l-75 74l-75 -74l-76 76l75 75z" />
    <glyph glyph-name="uniFC3D" unicode="&#xfc3d;" horiz-adv-x="1412" arabic-form="isolated" 
d="M1173 423q204 -89 204 -223q0 -90 -71 -145t-192 -55h-219h-1h-1q-107 0 -165 56.5t-58 163.5q0 70 20 173q-125 -8 -201.5 -49.5t-76.5 -92.5q0 -25 16 -43t64 -50l44 -29q103 -67 103 -152q0 -86 -78 -139t-213 -53q-146 0 -227 67.5t-81 204.5q0 96 45 228h80
q-45 -114 -45 -213q0 -100 63.5 -149t197.5 -49q80 0 129 26.5t49 66.5q0 19 -18 39t-59 48l-46 31q-57 39 -81 74t-24 83q0 92 93.5 158t279.5 85l71 -56q-29 -136 -29 -198q0 -141 147 -141h1h1h227q74 0 122 30t48 76q0 41 -37 75t-124 73l-240 106v68l349 277h127v-4
l-368 -291z" />
    <glyph glyph-name="uniFC3E" unicode="&#xfc3e;" horiz-adv-x="1412" arabic-form="isolated" 
d="M1173 423q204 -89 204 -223q0 -90 -71 -145t-192 -55h-219h-1h-1q-107 0 -165 56.5t-58 163.5q0 70 20 173q-125 -8 -201.5 -49.5t-76.5 -92.5q0 -25 16 -43t64 -50l44 -29q103 -67 103 -152q0 -86 -78 -139t-213 -53q-146 0 -227 67.5t-81 204.5q0 96 45 228h80
q-45 -114 -45 -213q0 -100 63.5 -149t197.5 -49q80 0 129 26.5t49 66.5q0 19 -18 39t-59 48l-46 31q-57 39 -81 74t-24 83q0 92 93.5 158t279.5 85l71 -56q-29 -136 -29 -198q0 -141 147 -141h1h1h227q74 0 122 30t48 76q0 41 -37 75t-124 73l-240 106v68l349 277h127v-4
l-368 -291zM408 -347l75 73l76 -75l-76 -76l-75 74l-75 -74l-76 76l75 75z" />
    <glyph glyph-name="uniFC42" unicode="&#xfc42;" horiz-adv-x="517" arabic-form="isolated" 
d="M517 92l-43 -79q-72 13 -131 63q-65 24 -125 24q-46 0 -67 -22t-21 -72q0 -76 33 -281h-85q-33 206 -33 292q0 80 46.5 126.5t120.5 46.5q45 0 99 -14q-7 52 -7 91v458h85v-567q69 -26 128 -66z" />
    <glyph glyph-name="uniFC44" unicode="&#xfc44;" horiz-adv-x="865" arabic-form="isolated" 
d="M695 725h85v-534q0 -138 -115 -178q-90 -228 -352 -228q-131 0 -202 69.5t-71 202.5q0 96 45 228h80q-45 -114 -45 -213q0 -101 52.5 -149t159.5 -48q174 0 246 125h-2h-150l15 90h135q64 0 91.5 25t27.5 79v531zM386 -337l75 73l76 -75l-76 -76l-75 74l-75 -74l-76 76
l75 75z" />
    <glyph glyph-name="uniFC4E" unicode="&#xfc4e;" horiz-adv-x="542" arabic-form="isolated" 
d="M486 679l-75 -75l-77 75l75 76zM507 92l-43 -79q-72 13 -131 63q-65 24 -125 24q-46 0 -67 -22t-21 -72q0 -76 33 -281h-85q-33 206 -33 292q0 80 46.5 126.5t120.5 46.5q46 0 105 -16q-36 64 -36 128q0 133 131 230h10l53 -54q-60 -52 -84.5 -94t-24.5 -93
q0 -81 78 -157q40 -20 73 -42z" />
    <glyph glyph-name="uniFC4F" unicode="&#xfc4f;" horiz-adv-x="865" arabic-form="isolated" 
d="M806 631l-75 -75l-77 75l75 76zM810 191q0 -160 -148 -186q-92 -220 -344 -220q-135 0 -206.5 69t-71.5 203q0 96 45 228h80q-45 -114 -45 -213q0 -102 53 -149.5t164 -47.5q170 0 241 125h-152l15 90h165q64 0 93 25.5t29 78.5q0 67 -33 291h85q30 -200 30 -294z" />
    <glyph glyph-name="uniFC50" unicode="&#xfc50;" horiz-adv-x="865" arabic-form="isolated" 
d="M806 631l-75 -75l-77 75l75 76zM810 191q0 -160 -148 -186q-92 -220 -344 -220q-135 0 -206.5 69t-71.5 203q0 96 45 228h80q-45 -114 -45 -213q0 -102 53 -149.5t164 -47.5q170 0 241 125h-152l15 90h165q64 0 93 25.5t29 78.5q0 67 -33 291h85q30 -200 30 -294z
M408 -347l75 73l76 -75l-76 -76l-75 74l-75 -74l-76 76l75 75z" />
    <glyph glyph-name="uniFC58" unicode="&#xfc58;" horiz-adv-x="542" arabic-form="isolated" 
d="M208 100q-46 0 -67 -22t-21 -72q0 -76 33 -281h-85q-33 206 -33 292q0 80 46.5 126.5t120.5 46.5q46 0 105 -16q-36 64 -36 128q0 133 131 230h10l53 -54q-60 -52 -84.5 -94t-24.5 -93q0 -81 78 -157q40 -20 73 -42l-43 -79q-72 13 -131 63q-65 24 -125 24zM331 -147
l75 73l76 -75l-76 -76l-75 74l-75 -74l-76 76l75 75z" />
    <glyph glyph-name="uniFC64" unicode="&#xfc64;" horiz-adv-x="603" arabic-form="final" 
d="M549 562h-125q-48 0 -106 -17v70q39 15 60 17q-22 23 -22 55q0 41 28.5 68.5t76.5 27.5q35 0 73 -19v-67q-42 13 -68 13q-21 0 -34.5 -10t-13.5 -27q0 -38 61 -38h92zM603 90q10 0 10 -10v-69q0 -11 -10 -11q-89 0 -135.5 49.5t-46.5 143.5q0 81 17 174
q-111 -56 -216 -73q16 -160 16 -268q0 -115 -70 -178t-183 -63v82q74 0 123 42.5t49 120.5q0 122 -27 328l10 12q154 14 305 89l79 -44q-24 -106 -24 -188q0 -71 24.5 -104t78.5 -33z" />
    <glyph glyph-name="uniFC65" unicode="&#xfc65;" horiz-adv-x="603" arabic-form="final" 
d="M559 562h-125q-48 0 -106 -17v70q39 15 60 17q-22 23 -22 55q0 41 28.5 68.5t76.5 27.5q35 0 73 -19v-67q-42 13 -68 13q-21 0 -34.5 -10t-13.5 -27q0 -38 61 -38h92zM220 554l-75 -75l-77 75l75 76zM603 90q10 0 10 -10v-69q0 -11 -10 -11q-89 0 -135.5 49.5
t-46.5 143.5q0 81 17 174q-111 -56 -216 -73q16 -160 16 -268q0 -115 -70 -178t-183 -63v82q74 0 123 42.5t49 120.5q0 122 -27 328l10 12q154 14 305 89l79 -44q-24 -106 -24 -188q0 -71 24.5 -104t78.5 -33z" />
    <glyph glyph-name="uniFC67" unicode="&#xfc67;" horiz-adv-x="938" arabic-form="final" 
d="M871 561h-125q-48 0 -106 -17v70q39 15 60 17q-22 23 -22 55q0 41 28.5 68.5t76.5 27.5q35 0 73 -19v-67q-42 13 -68 13q-21 0 -34.5 -10t-13.5 -27q0 -38 61 -38h92zM371 470l-75 -75l-77 75l75 76zM938 90q10 0 10 -10v-69q0 -11 -10 -11q-89 0 -135.5 49.5
t-46.5 143.5q0 76 18 174q-106 -54 -216 -72q14 -110 14 -196q0 -143 -71.5 -228.5t-212.5 -85.5q-118 0 -183 71t-65 201q0 96 45 228h80q-45 -114 -45 -213q0 -94 43.5 -145.5t132.5 -51.5q100 0 146.5 54t46.5 170q0 70 -24 259l10 12q154 14 305 89l79 -44
q-23 -101 -23 -188q0 -71 24 -104t78 -33z" />
    <glyph glyph-name="uniFC68" unicode="&#xfc68;" horiz-adv-x="904" arabic-form="final" 
d="M767 582h-125q-48 0 -106 -17v70q39 15 60 17q-22 23 -22 55q0 41 28.5 68.5t76.5 27.5q35 0 73 -19v-67q-42 13 -68 13q-21 0 -34.5 -10t-13.5 -27q0 -38 61 -38h92zM904 90q10 0 10 -10v-69q0 -11 -10 -11q-108 0 -171 57t-63 163q0 70 20 173q-125 -8 -201.5 -49.5
t-76.5 -92.5q0 -25 16 -43t64 -50l44 -29q103 -67 103 -152q0 -86 -78 -139t-213 -53q-146 0 -227 67.5t-81 204.5q0 96 45 228h80q-45 -114 -45 -213q0 -100 63.5 -149t197.5 -49q80 0 129 26.5t49 66.5q0 19 -18 39t-59 48l-46 31q-57 39 -81 74t-24 83q0 92 93.5 158
t279.5 85l71 -50q-29 -135 -29 -204q0 -67 42 -104t116 -37z" />
    <glyph glyph-name="uniFC69" unicode="&#xfc69;" horiz-adv-x="904" arabic-form="final" 
d="M767 582h-125q-48 0 -106 -17v70q39 15 60 17q-22 23 -22 55q0 41 28.5 68.5t76.5 27.5q35 0 73 -19v-67q-42 13 -68 13q-21 0 -34.5 -10t-13.5 -27q0 -38 61 -38h92zM904 90q10 0 10 -10v-69q0 -11 -10 -11q-108 0 -171 57t-63 163q0 70 20 173q-125 -8 -201.5 -49.5
t-76.5 -92.5q0 -25 16 -43t64 -50l44 -29q103 -67 103 -152q0 -86 -78 -139t-213 -53q-146 0 -227 67.5t-81 204.5q0 96 45 228h80q-45 -114 -45 -213q0 -100 63.5 -149t197.5 -49q80 0 129 26.5t49 66.5q0 19 -18 39t-59 48l-46 31q-57 39 -81 74t-24 83q0 92 93.5 158
t279.5 85l71 -50q-29 -135 -29 -204q0 -67 42 -104t116 -37zM408 -347l75 73l76 -75l-76 -76l-75 74l-75 -74l-76 76l75 75z" />
    <glyph glyph-name="uniFC6A" unicode="&#xfc6a;" horiz-adv-x="603" arabic-form="final" 
d="M603 90q10 0 10 -10v-69q0 -11 -10 -11q-89 0 -135.5 49.5t-46.5 143.5q0 81 17 174q-111 -56 -216 -73q16 -160 16 -268q0 -115 -70 -178t-183 -63v82q74 0 123 42.5t49 120.5q0 122 -27 328l10 12q154 14 305 89l79 -44q-24 -106 -24 -188q0 -71 24.5 -104t78.5 -33z
M302 -153l75 75l77 -75l-75 -76z" />
    <glyph glyph-name="uniFC6B" unicode="&#xfc6b;" horiz-adv-x="603" arabic-form="final" 
d="M220 554l-75 -75l-77 75l75 76zM603 90q10 0 10 -10v-69q0 -11 -10 -11q-89 0 -135.5 49.5t-46.5 143.5q0 81 17 174q-111 -56 -216 -73q16 -160 16 -268q0 -115 -70 -178t-183 -63v82q74 0 123 42.5t49 120.5q0 122 -27 328l10 12q154 14 305 89l79 -44
q-24 -106 -24 -188q0 -71 24.5 -104t78.5 -33zM302 -153l75 75l77 -75l-75 -76z" />
    <glyph glyph-name="uniFC6D" unicode="&#xfc6d;" horiz-adv-x="938" arabic-form="final" 
d="M371 470l-75 -75l-77 75l75 76zM938 90q10 0 10 -10v-69q0 -11 -10 -11q-89 0 -135.5 49.5t-46.5 143.5q0 76 18 174q-106 -54 -216 -72q14 -110 14 -196q0 -143 -71.5 -228.5t-212.5 -85.5q-118 0 -183 71t-65 201q0 96 45 228h80q-45 -114 -45 -213q0 -94 43.5 -145.5
t132.5 -51.5q100 0 146.5 54t46.5 170q0 70 -24 259l10 12q154 14 305 89l79 -44q-23 -101 -23 -188q0 -71 24 -104t78 -33zM618 -153l75 75l77 -75l-75 -76z" />
    <glyph glyph-name="uniFC6E" unicode="&#xfc6e;" horiz-adv-x="904" arabic-form="final" 
d="M904 90q10 0 10 -10v-69q0 -11 -10 -11q-108 0 -171 57t-63 163q0 70 20 173q-125 -8 -201.5 -49.5t-76.5 -92.5q0 -25 16 -43t64 -50l44 -29q103 -67 103 -152q0 -86 -78 -139t-213 -53q-146 0 -227 67.5t-81 204.5q0 96 45 228h80q-45 -114 -45 -213q0 -100 63.5 -149
t197.5 -49q80 0 129 26.5t49 66.5q0 19 -18 39t-59 48l-46 31q-57 39 -81 74t-24 83q0 92 93.5 158t279.5 85l71 -50q-29 -135 -29 -204q0 -67 42 -104t116 -37zM688 -153l75 75l77 -75l-75 -76z" />
    <glyph glyph-name="uniFC6F" unicode="&#xfc6f;" horiz-adv-x="904" arabic-form="final" 
d="M904 90q10 0 10 -10v-69q0 -11 -10 -11q-108 0 -171 57t-63 163q0 70 20 173q-125 -8 -201.5 -49.5t-76.5 -92.5q0 -25 16 -43t64 -50l44 -29q103 -67 103 -152q0 -86 -78 -139t-213 -53q-146 0 -227 67.5t-81 204.5q0 96 45 228h80q-45 -114 -45 -213q0 -100 63.5 -149
t197.5 -49q80 0 129 26.5t49 66.5q0 19 -18 39t-59 48l-46 31q-57 39 -81 74t-24 83q0 92 93.5 158t279.5 85l71 -50q-29 -135 -29 -204q0 -67 42 -104t116 -37zM688 -153l75 75l77 -75l-75 -76zM408 -347l75 73l76 -75l-76 -76l-75 74l-75 -74l-76 76l75 75z" />
    <glyph glyph-name="uniFC70" unicode="&#xfc70;" horiz-adv-x="603" arabic-form="final" 
d="M405 628l-75 -73l-76 75l75 76l76 -74l75 74l76 -76l-76 -75zM603 90q10 0 10 -10v-69q0 -11 -10 -11q-89 0 -135.5 49.5t-46.5 143.5q0 81 17 174q-111 -56 -216 -73q16 -160 16 -268q0 -115 -70 -178t-183 -63v82q74 0 123 42.5t49 120.5q0 122 -27 328l10 12
q154 14 305 89l79 -44q-24 -106 -24 -188q0 -71 24.5 -104t78.5 -33z" />
    <glyph glyph-name="uniFC71" unicode="&#xfc71;" horiz-adv-x="603" arabic-form="final" 
d="M458 628l-75 -73l-76 75l75 76l76 -74l75 74l76 -76l-76 -75zM220 554l-75 -75l-77 75l75 76zM603 90q10 0 10 -10v-69q0 -11 -10 -11q-89 0 -135.5 49.5t-46.5 143.5q0 81 17 174q-111 -56 -216 -73q16 -160 16 -268q0 -115 -70 -178t-183 -63v82q74 0 123 42.5
t49 120.5q0 122 -27 328l10 12q154 14 305 89l79 -44q-24 -106 -24 -188q0 -71 24.5 -104t78.5 -33z" />
    <glyph glyph-name="uniFC73" unicode="&#xfc73;" horiz-adv-x="938" arabic-form="final" 
d="M738 629l-75 -73l-76 75l75 76l76 -74l75 74l76 -76l-76 -75zM371 470l-75 -75l-77 75l75 76zM938 90q10 0 10 -10v-69q0 -11 -10 -11q-89 0 -135.5 49.5t-46.5 143.5q0 76 18 174q-106 -54 -216 -72q14 -110 14 -196q0 -143 -71.5 -228.5t-212.5 -85.5q-118 0 -183 71
t-65 201q0 96 45 228h80q-45 -114 -45 -213q0 -94 43.5 -145.5t132.5 -51.5q100 0 146.5 54t46.5 170q0 70 -24 259l10 12q154 14 305 89l79 -44q-23 -101 -23 -188q0 -71 24 -104t78 -33z" />
    <glyph glyph-name="uniFC74" unicode="&#xfc74;" horiz-adv-x="904" arabic-form="final" 
d="M662 661l-75 -73l-76 75l75 76l76 -74l75 74l76 -76l-76 -75zM904 90q10 0 10 -10v-69q0 -11 -10 -11q-108 0 -171 57t-63 163q0 70 20 173q-125 -8 -201.5 -49.5t-76.5 -92.5q0 -25 16 -43t64 -50l44 -29q103 -67 103 -152q0 -86 -78 -139t-213 -53q-146 0 -227 67.5
t-81 204.5q0 96 45 228h80q-45 -114 -45 -213q0 -100 63.5 -149t197.5 -49q80 0 129 26.5t49 66.5q0 19 -18 39t-59 48l-46 31q-57 39 -81 74t-24 83q0 92 93.5 158t279.5 85l71 -50q-29 -135 -29 -204q0 -67 42 -104t116 -37z" />
    <glyph glyph-name="uniFC75" unicode="&#xfc75;" horiz-adv-x="904" arabic-form="final" 
d="M662 661l-75 -73l-76 75l75 76l76 -74l75 74l76 -76l-76 -75zM904 90q10 0 10 -10v-69q0 -11 -10 -11q-108 0 -171 57t-63 163q0 70 20 173q-125 -8 -201.5 -49.5t-76.5 -92.5q0 -25 16 -43t64 -50l44 -29q103 -67 103 -152q0 -86 -78 -139t-213 -53q-146 0 -227 67.5
t-81 204.5q0 96 45 228h80q-45 -114 -45 -213q0 -100 63.5 -149t197.5 -49q80 0 129 26.5t49 66.5q0 19 -18 39t-59 48l-46 31q-57 39 -81 74t-24 83q0 92 93.5 158t279.5 85l71 -50q-29 -135 -29 -204q0 -67 42 -104t116 -37zM409 -347l75 73l76 -75l-76 -76l-75 74
l-75 -74l-76 76l75 75z" />
    <glyph glyph-name="uniFC76" unicode="&#xfc76;" horiz-adv-x="603" arabic-form="final" 
d="M464 755l-60 -60l-61 60l60 61zM397 634l-76 -75l-76 75l75 77zM485 559l-77 75l77 77l76 -77zM603 90q10 0 10 -10v-69q0 -11 -10 -11q-89 0 -135.5 49.5t-46.5 143.5q0 81 17 174q-111 -56 -216 -73q16 -160 16 -268q0 -115 -70 -178t-183 -63v82q74 0 123 42.5
t49 120.5q0 122 -27 328l10 12q154 14 305 89l79 -44q-24 -106 -24 -188q0 -71 24.5 -104t78.5 -33z" />
    <glyph glyph-name="uniFC77" unicode="&#xfc77;" horiz-adv-x="603" arabic-form="final" 
d="M510 755l-60 -60l-61 60l60 61zM443 634l-76 -75l-76 75l75 77zM531 559l-77 75l77 77l76 -77zM220 554l-75 -75l-77 75l75 76zM603 90q10 0 10 -10v-69q0 -11 -10 -11q-89 0 -135.5 49.5t-46.5 143.5q0 81 17 174q-111 -56 -216 -73q16 -160 16 -268q0 -115 -70 -178
t-183 -63v82q74 0 123 42.5t49 120.5q0 122 -27 328l10 12q154 14 305 89l79 -44q-24 -106 -24 -188q0 -71 24.5 -104t78.5 -33z" />
    <glyph glyph-name="uniFC79" unicode="&#xfc79;" horiz-adv-x="938" arabic-form="final" 
d="M796 742l-60 -60l-61 60l60 61zM729 621l-76 -75l-76 75l75 77zM817 546l-77 75l77 77l76 -77zM371 470l-75 -75l-77 75l75 76zM938 90q10 0 10 -10v-69q0 -11 -10 -11q-89 0 -135.5 49.5t-46.5 143.5q0 76 18 174q-106 -54 -216 -72q14 -110 14 -196
q0 -143 -71.5 -228.5t-212.5 -85.5q-118 0 -183 71t-65 201q0 96 45 228h80q-45 -114 -45 -213q0 -94 43.5 -145.5t132.5 -51.5q100 0 146.5 54t46.5 170q0 70 -24 259l10 12q154 14 305 89l79 -44q-23 -101 -23 -188q0 -71 24 -104t78 -33z" />
    <glyph glyph-name="uniFC7A" unicode="&#xfc7a;" horiz-adv-x="904" arabic-form="final" 
d="M717 745l-60 -60l-61 60l60 61zM650 624l-76 -75l-76 75l75 77zM738 549l-77 75l77 77l76 -77zM904 90q10 0 10 -10v-69q0 -11 -10 -11q-108 0 -171 57t-63 163q0 70 20 173q-125 -8 -201.5 -49.5t-76.5 -92.5q0 -25 16 -43t64 -50l44 -29q103 -67 103 -152
q0 -86 -78 -139t-213 -53q-146 0 -227 67.5t-81 204.5q0 96 45 228h80q-45 -114 -45 -213q0 -100 63.5 -149t197.5 -49q80 0 129 26.5t49 66.5q0 19 -18 39t-59 48l-46 31q-57 39 -81 74t-24 83q0 92 93.5 158t279.5 85l71 -50q-29 -135 -29 -204q0 -67 42 -104t116 -37z
" />
    <glyph glyph-name="uniFC7B" unicode="&#xfc7b;" horiz-adv-x="904" arabic-form="final" 
d="M717 745l-60 -60l-61 60l60 61zM650 624l-76 -75l-76 75l75 77zM738 549l-77 75l77 77l76 -77zM904 90q10 0 10 -10v-69q0 -11 -10 -11q-108 0 -171 57t-63 163q0 70 20 173q-125 -8 -201.5 -49.5t-76.5 -92.5q0 -25 16 -43t64 -50l44 -29q103 -67 103 -152
q0 -86 -78 -139t-213 -53q-146 0 -227 67.5t-81 204.5q0 96 45 228h80q-45 -114 -45 -213q0 -100 63.5 -149t197.5 -49q80 0 129 26.5t49 66.5q0 19 -18 39t-59 48l-46 31q-57 39 -81 74t-24 83q0 92 93.5 158t279.5 85l71 -50q-29 -135 -29 -204q0 -67 42 -104t116 -37z
M408 -347l75 73l76 -75l-76 -76l-75 74l-75 -74l-76 76l75 75z" />
    <glyph glyph-name="uniFC83" unicode="&#xfc83;" horiz-adv-x="1488" arabic-form="final" 
d="M1488 90q10 0 10 -10v-69q0 -11 -10 -11q-94 0 -168 67q-73 -67 -206 -67h-219h-1h-1q-107 0 -165 56.5t-58 163.5q0 70 20 173q-125 -8 -201.5 -49.5t-76.5 -92.5q0 -25 16 -43t64 -50l44 -29q103 -67 103 -152q0 -86 -78 -139t-213 -53q-146 0 -227 67.5t-81 204.5
q0 96 45 228h80q-45 -114 -45 -213q0 -100 63.5 -149t197.5 -49q80 0 129 26.5t49 66.5q0 19 -18 39t-59 48l-46 31q-57 39 -81 74t-24 83q0 92 93.5 158t279.5 85l71 -56q-29 -136 -29 -198q0 -141 147 -141h1h1h227q74 0 122 30t48 76q0 41 -37 75t-124 73l-240 106v68
l349 277h127v-4l-368 -291l174 -77q204 -89 204 -223q0 -40 -15 -75q53 -35 126 -35z" />
    <glyph glyph-name="uniFC84" unicode="&#xfc84;" horiz-adv-x="1488" arabic-form="final" 
d="M1488 90q10 0 10 -10v-69q0 -11 -10 -11q-94 0 -168 67q-73 -67 -206 -67h-219h-1h-1q-107 0 -165 56.5t-58 163.5q0 70 20 173q-125 -8 -201.5 -49.5t-76.5 -92.5q0 -25 16 -43t64 -50l44 -29q103 -67 103 -152q0 -86 -78 -139t-213 -53q-146 0 -227 67.5t-81 204.5
q0 96 45 228h80q-45 -114 -45 -213q0 -100 63.5 -149t197.5 -49q80 0 129 26.5t49 66.5q0 19 -18 39t-59 48l-46 31q-57 39 -81 74t-24 83q0 92 93.5 158t279.5 85l71 -56q-29 -136 -29 -198q0 -141 147 -141h1h1h227q74 0 122 30t48 76q0 41 -37 75t-124 73l-240 106v68
l349 277h127v-4l-368 -291l174 -77q204 -89 204 -223q0 -40 -15 -75q53 -35 126 -35zM408 -347l75 73l76 -75l-76 -76l-75 74l-75 -74l-76 76l75 75z" />
    <glyph glyph-name="uniFC87" unicode="&#xfc87;" horiz-adv-x="894" arabic-form="final" 
d="M893 90q10 0 10 -10v-69q0 -11 -10 -11q-113 0 -165 64q-34 -32 -60 -45q-91 -234 -355 -234q-131 0 -202 69.5t-71 202.5q0 96 45 228h80q-45 -114 -45 -213q0 -101 52.5 -149t159.5 -48q174 0 246 125h-2h-150l15 90h135q72 0 120 40q-7 27 -7 61v534h85v-531
q0 -54 28 -79t91 -25zM387 -337l75 73l76 -75l-76 -76l-75 74l-75 -74l-76 76l75 75z" />
    <glyph glyph-name="uniFC8A" unicode="&#xfc8a;" horiz-adv-x="603" arabic-form="final" 
d="M524 634l-75 -75l-77 75l75 76zM603 90q10 0 10 -10v-69q0 -11 -10 -11q-89 0 -135.5 49.5t-46.5 143.5q0 81 17 174q-111 -56 -216 -73q16 -160 16 -268q0 -115 -70 -178t-183 -63v82q74 0 123 42.5t49 120.5q0 122 -27 328l10 12q154 14 305 89l79 -44
q-24 -106 -24 -188q0 -71 24.5 -104t78.5 -33z" />
    <glyph glyph-name="uniFC8B" unicode="&#xfc8b;" horiz-adv-x="603" arabic-form="final" 
d="M524 634l-75 -75l-77 75l75 76zM220 554l-75 -75l-77 75l75 76zM603 90q10 0 10 -10v-69q0 -11 -10 -11q-89 0 -135.5 49.5t-46.5 143.5q0 81 17 174q-111 -56 -216 -73q16 -160 16 -268q0 -115 -70 -178t-183 -63v82q74 0 123 42.5t49 120.5q0 122 -27 328l10 12
q154 14 305 89l79 -44q-24 -106 -24 -188q0 -71 24.5 -104t78.5 -33z" />
    <glyph glyph-name="uniFC8D" unicode="&#xfc8d;" horiz-adv-x="938" arabic-form="final" 
d="M857 646l-75 -75l-77 75l75 76zM371 470l-75 -75l-77 75l75 76zM938 90q10 0 10 -10v-69q0 -11 -10 -11q-89 0 -135.5 49.5t-46.5 143.5q0 76 18 174q-106 -54 -216 -72q14 -110 14 -196q0 -143 -71.5 -228.5t-212.5 -85.5q-118 0 -183 71t-65 201q0 96 45 228h80
q-45 -114 -45 -213q0 -94 43.5 -145.5t132.5 -51.5q100 0 146.5 54t46.5 170q0 70 -24 259l10 12q154 14 305 89l79 -44q-23 -101 -23 -188q0 -71 24 -104t78 -33z" />
    <glyph glyph-name="uniFC8E" unicode="&#xfc8e;" horiz-adv-x="904" arabic-form="final" 
d="M778 671l-75 -75l-77 75l75 76zM904 90q10 0 10 -10v-69q0 -11 -10 -11q-108 0 -171 57t-63 163q0 70 20 173q-125 -8 -201.5 -49.5t-76.5 -92.5q0 -25 16 -43t64 -50l44 -29q103 -67 103 -152q0 -86 -78 -139t-213 -53q-146 0 -227 67.5t-81 204.5q0 96 45 228h80
q-45 -114 -45 -213q0 -100 63.5 -149t197.5 -49q80 0 129 26.5t49 66.5q0 19 -18 39t-59 48l-46 31q-57 39 -81 74t-24 83q0 92 93.5 158t279.5 85l71 -50q-29 -135 -29 -204q0 -67 42 -104t116 -37z" />
    <glyph glyph-name="uniFC8F" unicode="&#xfc8f;" horiz-adv-x="904" arabic-form="final" 
d="M778 671l-75 -75l-77 75l75 76zM904 90q10 0 10 -10v-69q0 -11 -10 -11q-108 0 -171 57t-63 163q0 70 20 173q-125 -8 -201.5 -49.5t-76.5 -92.5q0 -25 16 -43t64 -50l44 -29q103 -67 103 -152q0 -86 -78 -139t-213 -53q-146 0 -227 67.5t-81 204.5q0 96 45 228h80
q-45 -114 -45 -213q0 -100 63.5 -149t197.5 -49q80 0 129 26.5t49 66.5q0 19 -18 39t-59 48l-46 31q-57 39 -81 74t-24 83q0 92 93.5 158t279.5 85l71 -50q-29 -135 -29 -204q0 -67 42 -104t116 -37zM408 -347l75 73l76 -75l-76 -76l-75 74l-75 -74l-76 76l75 75z" />
    <glyph glyph-name="uniFC91" unicode="&#xfc91;" horiz-adv-x="603" arabic-form="final" 
d="M603 90q10 0 10 -10v-69q0 -11 -10 -11q-89 0 -135.5 49.5t-46.5 143.5q0 81 17 174q-111 -56 -216 -73q16 -160 16 -268q0 -115 -70 -178t-183 -63v82q74 0 123 42.5t49 120.5q0 122 -27 328l10 12q154 14 305 89l79 -44q-24 -106 -24 -188q0 -71 24.5 -104t78.5 -33z
M395 -147l75 73l76 -75l-76 -76l-75 74l-75 -74l-76 76l75 75z" />
    <glyph glyph-name="uniFC92" unicode="&#xfc92;" horiz-adv-x="603" arabic-form="final" 
d="M220 554l-75 -75l-77 75l75 76zM603 90q10 0 10 -10v-69q0 -11 -10 -11q-89 0 -135.5 49.5t-46.5 143.5q0 81 17 174q-111 -56 -216 -73q16 -160 16 -268q0 -115 -70 -178t-183 -63v82q74 0 123 42.5t49 120.5q0 122 -27 328l10 12q154 14 305 89l79 -44
q-24 -106 -24 -188q0 -71 24.5 -104t78.5 -33zM395 -147l75 73l76 -75l-76 -76l-75 74l-75 -74l-76 76l75 75z" />
    <glyph glyph-name="uniFC94" unicode="&#xfc94;" horiz-adv-x="938" arabic-form="final" 
d="M371 470l-75 -75l-77 75l75 76zM938 90q10 0 10 -10v-69q0 -11 -10 -11q-89 0 -135.5 49.5t-46.5 143.5q0 76 18 174q-106 -54 -216 -72q14 -110 14 -196q0 -143 -71.5 -228.5t-212.5 -85.5q-118 0 -183 71t-65 201q0 96 45 228h80q-45 -114 -45 -213q0 -94 43.5 -145.5
t132.5 -51.5q100 0 146.5 54t46.5 170q0 70 -24 259l10 12q154 14 305 89l79 -44q-23 -101 -23 -188q0 -71 24 -104t78 -33zM732 -147l75 73l76 -75l-76 -76l-75 74l-75 -74l-76 76l75 75z" />
    <glyph glyph-name="uniFCCC" unicode="&#xfccc;" horiz-adv-x="293" arabic-form="initial" 
d="M308 0l-41 -77q-72 16 -126 57q-67 20 -141 20q-10 0 -10 10v69q0 11 10 11q61 0 112 -10q-9 50 -9 102v543h85v-662q61 -25 120 -63z" />
    <glyph glyph-name="uniFCFB" unicode="&#xfcfb;" horiz-adv-x="1464" arabic-form="isolated" 
d="M1379 485q30 -206 30 -296q0 -85 -53.5 -137t-140.5 -52q-82 0 -176 57q-55 -57 -152 -57q-101 0 -159 57t-58 163q0 70 20 173q-125 -8 -201.5 -49.5t-76.5 -92.5q0 -25 16 -43t64 -50l44 -29q103 -67 103 -152q0 -86 -78 -139t-213 -53q-146 0 -227 67.5t-81 204.5
q0 96 45 228h80q-45 -114 -45 -213q0 -100 63.5 -149t197.5 -49q80 0 129 26.5t49 66.5q0 19 -18 39t-59 48l-46 31q-57 39 -81 74t-24 83q0 92 93.5 158t279.5 85l71 -50q-29 -135 -29 -204q0 -68 36 -104.5t103 -36.5q49 0 75 13t40 41q26 51 26 226h79q0 -166 -29 -249
q69 -31 129 -31q121 0 121 102q0 75 -32 293h85z" />
    <glyph glyph-name="uniFCFC" unicode="&#xfcfc;" horiz-adv-x="1464" arabic-form="isolated" 
d="M1379 485q30 -206 30 -296q0 -85 -53.5 -137t-140.5 -52q-82 0 -176 57q-55 -57 -152 -57q-101 0 -159 57t-58 163q0 70 20 173q-125 -8 -201.5 -49.5t-76.5 -92.5q0 -25 16 -43t64 -50l44 -29q103 -67 103 -152q0 -86 -78 -139t-213 -53q-146 0 -227 67.5t-81 204.5
q0 96 45 228h80q-45 -114 -45 -213q0 -100 63.5 -149t197.5 -49q80 0 129 26.5t49 66.5q0 19 -18 39t-59 48l-46 31q-57 39 -81 74t-24 83q0 92 93.5 158t279.5 85l71 -50q-29 -135 -29 -204q0 -68 36 -104.5t103 -36.5q49 0 75 13t40 41q26 51 26 226h79q0 -166 -29 -249
q69 -31 129 -31q121 0 121 102q0 75 -32 293h85zM408 -347l75 73l76 -75l-76 -76l-75 74l-75 -74l-76 76l75 75z" />
    <glyph glyph-name="uniFCFD" unicode="&#xfcfd;" horiz-adv-x="1464" arabic-form="isolated" 
d="M1134 668l-60 -60l-61 60l60 61zM1067 547l-76 -75l-76 75l75 77zM1155 472l-77 75l77 77l76 -77zM1379 485q30 -206 30 -296q0 -85 -53.5 -137t-140.5 -52q-82 0 -176 57q-55 -57 -152 -57q-101 0 -159 57t-58 163q0 70 20 173q-125 -8 -201.5 -49.5t-76.5 -92.5
q0 -25 16 -43t64 -50l44 -29q103 -67 103 -152q0 -86 -78 -139t-213 -53q-146 0 -227 67.5t-81 204.5q0 96 45 228h80q-45 -114 -45 -213q0 -100 63.5 -149t197.5 -49q80 0 129 26.5t49 66.5q0 19 -18 39t-59 48l-46 31q-57 39 -81 74t-24 83q0 92 93.5 158t279.5 85l71 -50
q-29 -135 -29 -204q0 -68 36 -104.5t103 -36.5q49 0 75 13t40 41q26 51 26 226h79q0 -166 -29 -249q69 -31 129 -31q121 0 121 102q0 75 -32 293h85z" />
    <glyph glyph-name="uniFCFE" unicode="&#xfcfe;" horiz-adv-x="1464" arabic-form="isolated" 
d="M1126 668l-60 -60l-61 60l60 61zM1059 547l-76 -75l-76 75l75 77zM1147 472l-77 75l77 77l76 -77zM1379 485q30 -206 30 -296q0 -85 -53.5 -137t-140.5 -52q-82 0 -176 57q-55 -57 -152 -57q-101 0 -159 57t-58 163q0 70 20 173q-125 -8 -201.5 -49.5t-76.5 -92.5
q0 -25 16 -43t64 -50l44 -29q103 -67 103 -152q0 -86 -78 -139t-213 -53q-146 0 -227 67.5t-81 204.5q0 96 45 228h80q-45 -114 -45 -213q0 -100 63.5 -149t197.5 -49q80 0 129 26.5t49 66.5q0 19 -18 39t-59 48l-46 31q-57 39 -81 74t-24 83q0 92 93.5 158t279.5 85l71 -50
q-29 -135 -29 -204q0 -68 36 -104.5t103 -36.5q49 0 75 13t40 41q26 51 26 226h79q0 -166 -29 -249q69 -31 129 -31q121 0 121 102q0 75 -32 293h85zM408 -347l75 73l76 -75l-76 -76l-75 74l-75 -74l-76 76l75 75z" />
    <glyph glyph-name="uniFD05" unicode="&#xfd05;" horiz-adv-x="1496" arabic-form="isolated" 
d="M1240 518q91 0 151 -60.5t60 -152.5q0 -139 -109.5 -222t-291.5 -83h-152q-110 0 -169 56t-59 164q0 70 20 173q-125 -8 -201.5 -49.5t-76.5 -92.5q0 -25 16 -43t64 -50l44 -29q103 -67 103 -152q0 -86 -78 -139t-213 -53q-146 0 -227 67.5t-81 204.5q0 96 45 228h80
q-45 -114 -45 -213q0 -100 63.5 -149t197.5 -49q80 0 129 26.5t49 66.5q0 19 -18 39t-59 48l-46 31q-57 39 -81 74t-24 83q0 92 93.5 158t279.5 85l71 -50q-29 -136 -29 -204q0 -69 28 -101q135 164 216.5 246.5t136 112t113.5 29.5zM1038 90q148 0 237.5 54.5t89.5 146.5
q0 59 -39.5 98t-97.5 39q-69 0 -142.5 -66.5t-239.5 -268.5q18 -3 42 -3h150z" />
    <glyph glyph-name="uniFD06" unicode="&#xfd06;" horiz-adv-x="1496" arabic-form="isolated" 
d="M1240 518q91 0 151 -60.5t60 -152.5q0 -139 -109.5 -222t-291.5 -83h-152q-110 0 -169 56t-59 164q0 70 20 173q-125 -8 -201.5 -49.5t-76.5 -92.5q0 -25 16 -43t64 -50l44 -29q103 -67 103 -152q0 -86 -78 -139t-213 -53q-146 0 -227 67.5t-81 204.5q0 96 45 228h80
q-45 -114 -45 -213q0 -100 63.5 -149t197.5 -49q80 0 129 26.5t49 66.5q0 19 -18 39t-59 48l-46 31q-57 39 -81 74t-24 83q0 92 93.5 158t279.5 85l71 -50q-29 -136 -29 -204q0 -69 28 -101q135 164 216.5 246.5t136 112t113.5 29.5zM1038 90q148 0 237.5 54.5t89.5 146.5
q0 59 -39.5 98t-97.5 39q-69 0 -142.5 -66.5t-239.5 -268.5q18 -3 42 -3h150zM408 -347l75 73l76 -75l-76 -76l-75 74l-75 -74l-76 76l75 75z" />
    <glyph glyph-name="uniFD07" unicode="&#xfd07;" horiz-adv-x="1496" arabic-form="isolated" 
d="M1087 637l-75 -75l-77 75l75 76zM1240 518q91 0 151 -60.5t60 -152.5q0 -139 -109.5 -222t-291.5 -83h-152q-110 0 -169 56t-59 164q0 70 20 173q-125 -8 -201.5 -49.5t-76.5 -92.5q0 -25 16 -43t64 -50l44 -29q103 -67 103 -152q0 -86 -78 -139t-213 -53
q-146 0 -227 67.5t-81 204.5q0 96 45 228h80q-45 -114 -45 -213q0 -100 63.5 -149t197.5 -49q80 0 129 26.5t49 66.5q0 19 -18 39t-59 48l-46 31q-57 39 -81 74t-24 83q0 92 93.5 158t279.5 85l71 -50q-29 -136 -29 -204q0 -69 28 -101q135 164 216.5 246.5t136 112
t113.5 29.5zM1038 90q148 0 237.5 54.5t89.5 146.5q0 59 -39.5 98t-97.5 39q-69 0 -142.5 -66.5t-239.5 -268.5q18 -3 42 -3h150z" />
    <glyph glyph-name="uniFD08" unicode="&#xfd08;" horiz-adv-x="1496" arabic-form="isolated" 
d="M1087 637l-75 -75l-77 75l75 76zM1240 518q91 0 151 -60.5t60 -152.5q0 -139 -109.5 -222t-291.5 -83h-152q-110 0 -169 56t-59 164q0 70 20 173q-125 -8 -201.5 -49.5t-76.5 -92.5q0 -25 16 -43t64 -50l44 -29q103 -67 103 -152q0 -86 -78 -139t-213 -53
q-146 0 -227 67.5t-81 204.5q0 96 45 228h80q-45 -114 -45 -213q0 -100 63.5 -149t197.5 -49q80 0 129 26.5t49 66.5q0 19 -18 39t-59 48l-46 31q-57 39 -81 74t-24 83q0 92 93.5 158t279.5 85l71 -50q-29 -136 -29 -204q0 -69 28 -101q135 164 216.5 246.5t136 112
t113.5 29.5zM1038 90q148 0 237.5 54.5t89.5 146.5q0 59 -39.5 98t-97.5 39q-69 0 -142.5 -66.5t-239.5 -268.5q18 -3 42 -3h150zM408 -347l75 73l76 -75l-76 -76l-75 74l-75 -74l-76 76l75 75z" />
    <glyph glyph-name="uniFD0D" unicode="&#xfd0d;" horiz-adv-x="1218" arabic-form="isolated" 
d="M879 668l-60 -60l-61 60l60 61zM812 547l-76 -75l-76 75l75 77zM900 472l-77 75l77 77l76 -77zM1133 485q30 -206 30 -296q0 -85 -53.5 -137t-140.5 -52q-82 0 -176 57q-52 -57 -142 -57q-113 0 -171 61t-58 181q0 38 9 103q-136 -30 -208 -58q15 -142 15 -261
q0 -115 -70 -178t-183 -63v82q74 0 123 42.5t49 120.5q0 118 -20 277l63 65q144 40 247 54q3 14 14 69h78q-39 -169 -39 -245q0 -82 35 -121t111 -39q81 0 108 54q26 51 26 226h79q0 -166 -29 -249q69 -31 129 -31q121 0 121 102q0 75 -32 293h85z" />
    <glyph glyph-name="uniFD0E" unicode="&#xfd0e;" horiz-adv-x="1218" arabic-form="isolated" 
d="M1133 485q30 -206 30 -296q0 -85 -53.5 -137t-140.5 -52q-82 0 -176 57q-52 -57 -142 -57q-113 0 -171 61t-58 181q0 38 9 103q-136 -30 -208 -58q15 -142 15 -261q0 -115 -70 -178t-183 -63v82q74 0 123 42.5t49 120.5q0 118 -20 277l63 65q144 40 247 54q3 14 14 69h78
q-39 -169 -39 -245q0 -82 35 -121t111 -39q81 0 108 54q26 51 26 226h79q0 -166 -29 -249q69 -31 129 -31q121 0 121 102q0 75 -32 293h85z" />
    <glyph glyph-name="uniFD0F" unicode="&#xfd0f;" horiz-adv-x="1272" arabic-form="isolated" 
d="M1016 518q91 0 151 -60.5t60 -152.5q0 -139 -109.5 -222t-291.5 -83h-120q-284 0 -284 242q0 38 9 103q-136 -30 -208 -58q15 -142 15 -261q0 -115 -70 -178t-183 -63v82q74 0 123 42.5t49 120.5q0 118 -20 277l63 65q144 40 247 54q3 14 14 69h78q-39 -169 -39 -245
q0 -89 47 -124q136 165 218.5 248.5t137 113.5t113.5 30zM814 90q148 0 237.5 54.5t89.5 146.5q0 59 -39.5 98t-97.5 39q-69 0 -141.5 -66t-238.5 -267q37 -5 75 -5h115z" />
    <glyph glyph-name="uniFD10" unicode="&#xfd10;" horiz-adv-x="1272" arabic-form="isolated" 
d="M836 626l-75 -75l-77 75l75 76zM1016 518q91 0 151 -60.5t60 -152.5q0 -139 -109.5 -222t-291.5 -83h-120q-284 0 -284 242q0 38 9 103q-136 -30 -208 -58q15 -142 15 -261q0 -115 -70 -178t-183 -63v82q74 0 123 42.5t49 120.5q0 118 -20 277l63 65q144 40 247 54
q3 14 14 69h78q-39 -169 -39 -245q0 -89 47 -124q136 165 218.5 248.5t137 113.5t113.5 30zM814 90q148 0 237.5 54.5t89.5 146.5q0 59 -39.5 98t-97.5 39q-69 0 -141.5 -66t-238.5 -267q37 -5 75 -5h115z" />
    <glyph glyph-name="uniFD17" unicode="&#xfd17;" horiz-adv-x="1505" arabic-form="final" 
d="M1507 90q10 0 10 -10v-69q0 -11 -10 -11q-93 0 -167 66q-52 -66 -147 -66q-73 0 -164 53q-51 -53 -136 -53q-107 0 -165 56.5t-58 163.5q0 70 20 173q-125 -8 -201.5 -49.5t-76.5 -92.5q0 -25 16 -43t64 -50l44 -29q103 -67 103 -152q0 -86 -78 -139t-213 -53
q-146 0 -227 67.5t-81 204.5q0 96 45 228h80q-45 -114 -45 -213q0 -100 63.5 -149t197.5 -49q80 0 129 26.5t49 66.5q0 19 -18 39t-59 48l-46 31q-57 39 -81 74t-24 83q0 92 93.5 158t279.5 85l71 -50q-29 -135 -29 -204t36 -105t106 -36q78 0 105 54q26 51 26 226h79
q0 -171 -30 -252q59 -28 120 -28q78 0 105 54q26 51 26 226v70h79v-70q0 -158 -26 -239q60 -41 135 -41z" />
    <glyph glyph-name="uniFD18" unicode="&#xfd18;" horiz-adv-x="1505" arabic-form="final" 
d="M1507 90q10 0 10 -10v-69q0 -11 -10 -11q-93 0 -167 66q-52 -66 -147 -66q-73 0 -164 53q-51 -53 -136 -53q-107 0 -165 56.5t-58 163.5q0 70 20 173q-125 -8 -201.5 -49.5t-76.5 -92.5q0 -25 16 -43t64 -50l44 -29q103 -67 103 -152q0 -86 -78 -139t-213 -53
q-146 0 -227 67.5t-81 204.5q0 96 45 228h80q-45 -114 -45 -213q0 -100 63.5 -149t197.5 -49q80 0 129 26.5t49 66.5q0 19 -18 39t-59 48l-46 31q-57 39 -81 74t-24 83q0 92 93.5 158t279.5 85l71 -50q-29 -135 -29 -204t36 -105t106 -36q78 0 105 54q26 51 26 226h79
q0 -171 -30 -252q59 -28 120 -28q78 0 105 54q26 51 26 226v70h79v-70q0 -158 -26 -239q60 -41 135 -41zM408 -347l75 73l76 -75l-76 -76l-75 74l-75 -74l-76 76l75 75z" />
    <glyph glyph-name="uniFD19" unicode="&#xfd19;" horiz-adv-x="1505" arabic-form="final" 
d="M1118 668l-60 -60l-61 60l60 61zM1051 547l-76 -75l-76 75l75 77zM1139 472l-77 75l77 77l76 -77zM1507 90q10 0 10 -10v-69q0 -11 -10 -11q-93 0 -167 66q-52 -66 -147 -66q-73 0 -164 53q-51 -53 -136 -53q-107 0 -165 56.5t-58 163.5q0 70 20 173
q-125 -8 -201.5 -49.5t-76.5 -92.5q0 -25 16 -43t64 -50l44 -29q103 -67 103 -152q0 -86 -78 -139t-213 -53q-146 0 -227 67.5t-81 204.5q0 96 45 228h80q-45 -114 -45 -213q0 -100 63.5 -149t197.5 -49q80 0 129 26.5t49 66.5q0 19 -18 39t-59 48l-46 31q-57 39 -81 74
t-24 83q0 92 93.5 158t279.5 85l71 -50q-29 -135 -29 -204t36 -105t106 -36q78 0 105 54q26 51 26 226h79q0 -171 -30 -252q59 -28 120 -28q78 0 105 54q26 51 26 226v70h79v-70q0 -158 -26 -239q60 -41 135 -41z" />
    <glyph glyph-name="uniFD1A" unicode="&#xfd1a;" horiz-adv-x="1505" arabic-form="final" 
d="M1115 668l-60 -60l-61 60l60 61zM1048 547l-76 -75l-76 75l75 77zM1136 472l-77 75l77 77l76 -77zM1507 90q10 0 10 -10v-69q0 -11 -10 -11q-93 0 -167 66q-52 -66 -147 -66q-73 0 -164 53q-51 -53 -136 -53q-107 0 -165 56.5t-58 163.5q0 70 20 173
q-125 -8 -201.5 -49.5t-76.5 -92.5q0 -25 16 -43t64 -50l44 -29q103 -67 103 -152q0 -86 -78 -139t-213 -53q-146 0 -227 67.5t-81 204.5q0 96 45 228h80q-45 -114 -45 -213q0 -100 63.5 -149t197.5 -49q80 0 129 26.5t49 66.5q0 19 -18 39t-59 48l-46 31q-57 39 -81 74
t-24 83q0 92 93.5 158t279.5 85l71 -50q-29 -135 -29 -204t36 -105t106 -36q78 0 105 54q26 51 26 226h79q0 -171 -30 -252q59 -28 120 -28q78 0 105 54q26 51 26 226v70h79v-70q0 -158 -26 -239q60 -41 135 -41zM408 -347l75 73l76 -75l-76 -76l-75 74l-75 -74l-76 76
l75 75z" />
    <glyph glyph-name="uniFD21" unicode="&#xfd21;" horiz-adv-x="1517" arabic-form="final" 
d="M1517 90q10 0 10 -10v-69q0 -11 -10 -11q-53 0 -94.5 18t-86.5 61q-108 -79 -286 -79h-152q-110 0 -169 56t-59 164q0 70 20 173q-125 -8 -201.5 -49.5t-76.5 -92.5q0 -25 16 -43t64 -50l44 -29q103 -67 103 -152q0 -86 -78 -139t-213 -53q-146 0 -227 67.5t-81 204.5
q0 96 45 228h80q-45 -114 -45 -213q0 -100 63.5 -149t197.5 -49q80 0 129 26.5t49 66.5q0 19 -18 39t-59 48l-46 31q-57 39 -81 74t-24 83q0 92 93.5 158t279.5 85l71 -50q-29 -136 -29 -204q0 -69 28 -101q135 164 216.5 246.5t136 112t113.5 29.5q91 0 151 -60.5
t60 -152.5q0 -104 -63 -178q56 -37 129 -37zM1038 90q148 0 237.5 54.5t89.5 146.5q0 59 -39.5 98t-97.5 39q-69 0 -142.5 -66.5t-239.5 -268.5q18 -3 42 -3h150z" />
    <glyph glyph-name="uniFD22" unicode="&#xfd22;" horiz-adv-x="1517" arabic-form="final" 
d="M1517 90q10 0 10 -10v-69q0 -11 -10 -11q-53 0 -94.5 18t-86.5 61q-108 -79 -286 -79h-152q-110 0 -169 56t-59 164q0 70 20 173q-125 -8 -201.5 -49.5t-76.5 -92.5q0 -25 16 -43t64 -50l44 -29q103 -67 103 -152q0 -86 -78 -139t-213 -53q-146 0 -227 67.5t-81 204.5
q0 96 45 228h80q-45 -114 -45 -213q0 -100 63.5 -149t197.5 -49q80 0 129 26.5t49 66.5q0 19 -18 39t-59 48l-46 31q-57 39 -81 74t-24 83q0 92 93.5 158t279.5 85l71 -50q-29 -136 -29 -204q0 -69 28 -101q135 164 216.5 246.5t136 112t113.5 29.5q91 0 151 -60.5
t60 -152.5q0 -104 -63 -178q56 -37 129 -37zM1038 90q148 0 237.5 54.5t89.5 146.5q0 59 -39.5 98t-97.5 39q-69 0 -142.5 -66.5t-239.5 -268.5q18 -3 42 -3h150zM408 -347l75 73l76 -75l-76 -76l-75 74l-75 -74l-76 76l75 75z" />
    <glyph glyph-name="uniFD23" unicode="&#xfd23;" horiz-adv-x="1517" arabic-form="final" 
d="M1087 637l-75 -75l-77 75l75 76zM1517 90q10 0 10 -10v-69q0 -11 -10 -11q-53 0 -94.5 18t-86.5 61q-108 -79 -286 -79h-152q-110 0 -169 56t-59 164q0 70 20 173q-125 -8 -201.5 -49.5t-76.5 -92.5q0 -25 16 -43t64 -50l44 -29q103 -67 103 -152q0 -86 -78 -139
t-213 -53q-146 0 -227 67.5t-81 204.5q0 96 45 228h80q-45 -114 -45 -213q0 -100 63.5 -149t197.5 -49q80 0 129 26.5t49 66.5q0 19 -18 39t-59 48l-46 31q-57 39 -81 74t-24 83q0 92 93.5 158t279.5 85l71 -50q-29 -136 -29 -204q0 -69 28 -101q135 164 216.5 246.5
t136 112t113.5 29.5q91 0 151 -60.5t60 -152.5q0 -104 -63 -178q56 -37 129 -37zM1038 90q148 0 237.5 54.5t89.5 146.5q0 59 -39.5 98t-97.5 39q-69 0 -142.5 -66.5t-239.5 -268.5q18 -3 42 -3h150z" />
    <glyph glyph-name="uniFD24" unicode="&#xfd24;" horiz-adv-x="1517" arabic-form="final" 
d="M1087 637l-75 -75l-77 75l75 76zM1517 90q10 0 10 -10v-69q0 -11 -10 -11q-53 0 -94.5 18t-86.5 61q-108 -79 -286 -79h-152q-110 0 -169 56t-59 164q0 70 20 173q-125 -8 -201.5 -49.5t-76.5 -92.5q0 -25 16 -43t64 -50l44 -29q103 -67 103 -152q0 -86 -78 -139
t-213 -53q-146 0 -227 67.5t-81 204.5q0 96 45 228h80q-45 -114 -45 -213q0 -100 63.5 -149t197.5 -49q80 0 129 26.5t49 66.5q0 19 -18 39t-59 48l-46 31q-57 39 -81 74t-24 83q0 92 93.5 158t279.5 85l71 -50q-29 -136 -29 -204q0 -69 28 -101q135 164 216.5 246.5
t136 112t113.5 29.5q91 0 151 -60.5t60 -152.5q0 -104 -63 -178q56 -37 129 -37zM1038 90q148 0 237.5 54.5t89.5 146.5q0 59 -39.5 98t-97.5 39q-69 0 -142.5 -66.5t-239.5 -268.5q18 -3 42 -3h150zM408 -347l75 73l76 -75l-76 -76l-75 74l-75 -74l-76 76l75 75z" />
    <glyph glyph-name="uniFD29" unicode="&#xfd29;" horiz-adv-x="1259" arabic-form="final" 
d="M874 668l-60 -60l-61 60l60 61zM807 547l-76 -75l-76 75l75 77zM895 472l-77 75l77 77l76 -77zM1261 90q10 0 10 -10v-69q0 -11 -10 -11q-93 0 -167 66q-52 -66 -147 -66q-75 0 -164 54q-51 -54 -137 -54q-108 0 -166 60.5t-58 181.5q0 49 9 103q-136 -30 -208 -58
q15 -142 15 -261q0 -115 -70 -178t-183 -63v82q74 0 123 42.5t49 120.5q0 118 -20 277l63 65q134 37 246 54l15 69h77q-39 -175 -39 -245q1 -83 36 -121.5t106 -38.5q79 0 106 54q26 53 26 226h78q0 -171 -30 -252q61 -28 121 -28q78 0 105 54q26 51 26 226v70h79v-70
q0 -158 -26 -239q60 -41 135 -41z" />
    <glyph glyph-name="uniFD2A" unicode="&#xfd2a;" horiz-adv-x="1259" arabic-form="final" 
d="M1261 90q10 0 10 -10v-69q0 -11 -10 -11q-93 0 -167 66q-52 -66 -147 -66q-75 0 -164 54q-51 -54 -137 -54q-108 0 -166 60.5t-58 181.5q0 49 9 103q-136 -30 -208 -58q15 -142 15 -261q0 -115 -70 -178t-183 -63v82q74 0 123 42.5t49 120.5q0 118 -20 277l63 65
q134 37 246 54l15 69h77q-39 -175 -39 -245q1 -83 36 -121.5t106 -38.5q79 0 106 54q26 53 26 226h78q0 -171 -30 -252q61 -28 121 -28q78 0 105 54q26 51 26 226v70h79v-70q0 -158 -26 -239q60 -41 135 -41z" />
    <glyph glyph-name="uniFD2B" unicode="&#xfd2b;" horiz-adv-x="1287" arabic-form="final" 
d="M1287 90q10 0 10 -10v-69q0 -11 -10 -11q-53 0 -94 17.5t-85 59.5q-108 -77 -282 -77h-120q-284 0 -284 242q0 38 9 103q-136 -30 -208 -58q15 -142 15 -261q0 -115 -70 -178t-183 -63v82q74 0 123 42.5t49 120.5q0 118 -20 277l63 65q144 40 247 54q3 14 14 69h78
q-39 -169 -39 -245q0 -89 47 -124q136 165 218.5 248.5t137 113.5t113.5 30q91 0 151 -60.5t60 -152.5q0 -106 -65 -180q52 -35 125 -35zM814 90q148 0 237.5 54.5t89.5 146.5q0 59 -39.5 98t-97.5 39q-69 0 -141.5 -66t-238.5 -267q37 -5 75 -5h115z" />
    <glyph glyph-name="uniFD2C" unicode="&#xfd2c;" horiz-adv-x="1287" arabic-form="final" 
d="M836 626l-75 -75l-77 75l75 76zM1287 90q10 0 10 -10v-69q0 -11 -10 -11q-53 0 -94 17.5t-85 59.5q-108 -77 -282 -77h-120q-284 0 -284 242q0 38 9 103q-136 -30 -208 -58q15 -142 15 -261q0 -115 -70 -178t-183 -63v82q74 0 123 42.5t49 120.5q0 118 -20 277l63 65
q144 40 247 54q3 14 14 69h78q-39 -169 -39 -245q0 -89 47 -124q136 165 218.5 248.5t137 113.5t113.5 30q91 0 151 -60.5t60 -152.5q0 -106 -65 -180q52 -35 125 -35zM814 90q148 0 237.5 54.5t89.5 146.5q0 59 -39.5 98t-97.5 39q-69 0 -141.5 -66t-238.5 -267
q37 -5 75 -5h115z" />
    <glyph glyph-name="uniFE82" unicode="&#x622;" horiz-adv-x="289" arabic-form="final" 
d="M58 754q23 0 63.5 -18.5t63.5 -18.5q46 0 80 26l-1 -66q-33 -25 -77 -25q-23 0 -60.5 18.5t-56.5 18.5q-43 0 -49 -39h-55q0 45 24.5 74.5t67.5 29.5zM170 600v-406q0 -54 28 -79t91 -25q10 0 10 -10v-69q0 -11 -10 -11q-101 0 -152.5 50.5t-51.5 140.5v409h85z" />
    <glyph glyph-name="uniFE84" unicode="&#x623;" horiz-adv-x="289" arabic-form="final" 
d="M255 715l-18 -60h-162q-34 0 -75 -12v58q41 14 71 14q-24 24 -24 57q0 39 27 64.5t67 25.5q32 0 76 -20v-58q-38 15 -63 15q-22 0 -36 -12t-14 -31q0 -17 13.5 -29t33.5 -12h104zM289 90q10 0 10 -10v-69q0 -11 -10 -11q-101 0 -152.5 50.5t-51.5 140.5v409h85v-406
q0 -54 28 -79t91 -25z" />
    <glyph glyph-name="uniFE86" unicode="&#x624;" horiz-adv-x="531" arabic-form="final" 
d="M361 569h-125q-48 0 -106 -17v70q39 15 60 17q-22 23 -22 55q0 41 28.5 68.5t76.5 27.5q35 0 73 -19v-67q-42 13 -68 13q-21 0 -34.5 -10t-13.5 -27q0 -38 61 -38h92zM531 90q10 0 10 -10v-69q0 -11 -10 -11h-62q-11 -102 -98.5 -158.5t-250.5 -56.5v82q117 0 185 35
t82 98h-82q-121 0 -190.5 61t-69.5 171q0 105 61.5 174t158.5 69q86 0 139 -57.5t59 -157.5q5 -114 7 -170h61zM130 236q0 -71 46.5 -108.5t134.5 -37.5h78q-2 34 -6.5 94t-4.5 66q-4 66 -35 100.5t-83 34.5q-58 0 -94 -42t-36 -107z" />
    <glyph glyph-name="uniFE88" unicode="&#x625;" horiz-adv-x="289" arabic-form="final" 
d="M289 90q10 0 10 -10v-69q0 -11 -10 -11q-101 0 -152.5 50.5t-51.5 140.5v534h85v-531q0 -54 28 -79t91 -25zM104 -154q0 -17 13.5 -29t33.5 -12h105l-18 -60h-162q-34 0 -75 -12v58q41 14 70 14q-24 24 -24 57q0 39 27 64t67 25q35 0 76 -19v-58q-41 15 -63 15t-36 -12
t-14 -31z" />
    <glyph glyph-name="uniFE8A" unicode="&#x626;" horiz-adv-x="679" arabic-form="final" 
d="M593 239h-125q-48 0 -106 -17v70q39 15 60 17q-22 23 -22 55q0 41 28.5 68.5t76.5 27.5q35 0 73 -19v-67q-42 13 -68 13q-21 0 -34.5 -10t-13.5 -27q0 -38 61 -38h92zM679 90q10 0 10 -10v-69q0 -11 -10 -11h-9q-93 -215 -347 -215q-135 0 -209 69.5t-74 202.5
q0 96 45 228h80q-45 -114 -45 -213q0 -101 55 -149t167 -48q178 0 251 133q-48 9 -108 26v85q130 -29 194 -29z" />
    <glyph glyph-name="uniFE8B" unicode="&#x626;" horiz-adv-x="333" arabic-form="initial" 
d="M238 612h92l-22 -73h-125q-48 0 -106 -17v70q39 15 60 17q-22 23 -22 55q0 41 28.5 68.5t76.5 27.5q35 0 73 -19v-67q-42 13 -68 13q-21 0 -34.5 -10t-13.5 -27q0 -38 61 -38zM167 485h85q30 -210 30 -294q0 -90 -51.5 -140.5t-152.5 -50.5h-78q-10 0 -10 11v69
q0 10 10 10h78q64 0 92.5 25.5t28.5 78.5q0 74 -32 291z" />
    <glyph glyph-name="uniFE8C" unicode="&#x626;" horiz-adv-x="370" arabic-form="medial" 
d="M300 441h-125q-48 0 -106 -17v70q39 15 60 17q-22 23 -22 55q0 41 28.5 68.5t76.5 27.5q35 0 73 -19v-67q-42 13 -68 13q-21 0 -34.5 -10t-13.5 -27q0 -38 61 -38h92zM370 90q10 0 10 -10v-69q0 -11 -10 -11q-98 0 -185 78q-57 -78 -185 -78q-10 0 -10 11v69q0 10 10 10
q98 0 129 53q17 29 22 76.5t5 150.5h79q0 -155 -20 -226q73 -54 155 -54z" />
    <glyph glyph-name="uniFE8E" unicode="&#x627;" horiz-adv-x="289" arabic-form="final" 
d="M170 725v-531q0 -54 28 -79t91 -25q10 0 10 -10v-69q0 -11 -10 -11q-101 0 -152.5 50.5t-51.5 140.5v534h85z" />
    <glyph glyph-name="uniFE90" unicode="&#x628;" horiz-adv-x="837" arabic-form="final" 
d="M837 90q10 0 10 -10v-69q0 -11 -10 -11q-89 0 -159 59q-46 -53 -123 -58q-2 -1 -4 -1h-258q-120 0 -186.5 59.5t-66.5 169.5q0 79 30 211h80q-25 -122 -25 -190q0 -84 43 -122t144 -38h225q74 0 101 54q26 53 26 226h78q0 -163 -28 -247q53 -33 123 -33zM348 -148l75 75
l77 -75l-75 -76z" />
    <glyph glyph-name="uniFE91" unicode="&#x628;" horiz-adv-x="259" arabic-form="initial" 
d="M174 485q30 -200 30 -294q0 -90 -51.5 -140.5t-152.5 -50.5q-10 0 -10 11v69q0 10 10 10q64 0 93 25.5t29 78.5q0 67 -33 291h85zM98 -78l77 -75l-75 -76l-77 76z" />
    <glyph glyph-name="uniFE92" unicode="&#x628;" horiz-adv-x="300" arabic-form="medial" 
d="M300 90q10 0 10 -10v-69q0 -11 -10 -11q-89 0 -159 59q-50 -59 -141 -59q-10 0 -10 11v69q0 10 10 10q74 0 101 54q26 53 26 226h78q0 -163 -28 -247q53 -33 123 -33zM68 -154l75 75l77 -75l-75 -76z" />
    <glyph glyph-name="uniFE94" unicode="&#x629;" horiz-adv-x="536" arabic-form="final" 
d="M358 684l-75 -73l-76 75l75 76l76 -74l75 74l76 -76l-76 -75zM536 90q10 0 10 -10v-69q0 -11 -10 -11q-86 0 -131 50q-91 -50 -163 -50q-90 0 -146 53t-56 139q0 33 9 65.5t32.5 68t58.5 64t92.5 51.5t129.5 33v64h85v-357q0 -46 20 -68.5t69 -22.5zM244 90q66 0 127 26
q-9 33 -9 73v204q-109 -16 -173 -67.5t-64 -126.5q0 -50 32 -79.5t87 -29.5z" />
    <glyph glyph-name="uniFE96" unicode="&#x62a;" horiz-adv-x="837" arabic-form="final" 
d="M447 526l-75 -73l-76 75l75 76l76 -74l75 74l76 -76l-76 -75zM837 90q10 0 10 -10v-69q0 -11 -10 -11q-89 0 -159 59q-46 -53 -123 -58q-2 -1 -4 -1h-258q-120 0 -186.5 59.5t-66.5 169.5q0 79 30 211h80q-25 -122 -25 -190q0 -84 43 -122t144 -38h225q74 0 101 54
q26 53 26 226h78q0 -163 -28 -247q53 -33 123 -33z" />
    <glyph glyph-name="uniFE97" unicode="&#x62a;" horiz-adv-x="373" arabic-form="initial" 
d="M197 635l-75 -73l-76 75l75 76l76 -74l75 74l76 -76l-76 -75zM167 485h85q30 -210 30 -294q0 -90 -51.5 -140.5t-152.5 -50.5h-78q-10 0 -10 11v69q0 10 10 10h78q64 0 92.5 25.5t28.5 78.5q0 74 -32 291z" />
    <glyph glyph-name="uniFE98" unicode="&#x62a;" horiz-adv-x="370" arabic-form="medial" 
d="M194 525l-75 -73l-76 75l75 76l76 -74l75 74l76 -76l-76 -75zM370 90q10 0 10 -10v-69q0 -11 -10 -11q-98 0 -185 78q-57 -78 -185 -78q-10 0 -10 11v69q0 10 10 10q98 0 129 53q17 29 22 76.5t5 150.5h79q0 -155 -20 -226q73 -54 155 -54z" />
    <glyph glyph-name="uniFE9A" unicode="&#x62b;" horiz-adv-x="837" arabic-form="final" 
d="M500 649l-60 -60l-61 60l60 61zM433 528l-76 -75l-76 75l75 77zM521 453l-77 75l77 77l76 -77zM837 90q10 0 10 -10v-69q0 -11 -10 -11q-89 0 -159 59q-46 -53 -123 -58q-2 -1 -4 -1h-258q-120 0 -186.5 59.5t-66.5 169.5q0 79 30 211h80q-25 -122 -25 -190
q0 -84 43 -122t144 -38h225q74 0 101 54q26 53 26 226h78q0 -163 -28 -247q53 -33 123 -33z" />
    <glyph glyph-name="uniFE9B" unicode="&#x62b;" horiz-adv-x="380" arabic-form="initial" 
d="M197 820l61 -61l-60 -60l-61 60zM114 715l77 -77l-76 -75l-76 75zM279 715l76 -77l-76 -75l-77 75zM252 485q30 -210 30 -294q0 -90 -51.5 -140.5t-152.5 -50.5h-78q-10 0 -10 11v69q0 10 10 10h78q64 0 92.5 25.5t28.5 78.5q0 74 -32 291h85z" />
    <glyph glyph-name="uniFE9C" unicode="&#x62b;" horiz-adv-x="370" arabic-form="medial" 
d="M252 648l-60 -60l-61 60l60 61zM185 527l-76 -75l-76 75l75 77zM273 452l-77 75l77 77l76 -77zM370 90q10 0 10 -10v-69q0 -11 -10 -11q-98 0 -185 78q-57 -78 -185 -78q-10 0 -10 11v69q0 10 10 10q98 0 129 53q17 29 22 76.5t5 150.5h79q0 -155 -20 -226
q73 -54 155 -54z" />
    <glyph glyph-name="uniFE9E" unicode="&#x62c;" horiz-adv-x="651" arabic-form="final" 
d="M651 90q10 0 10 -10v-69q0 -11 -10 -11q-89 0 -137 38.5t-48 115.5v59q-144 -23 -242 -91.5t-98 -157.5q0 -72 53.5 -110.5t149.5 -38.5q99 0 228 37v-80q-138 -47 -233 -47q-135 0 -209.5 59t-74.5 172q0 127 115.5 215.5t315.5 111.5q-46 27 -103 72t-97 69t-81 24
q-51 0 -120 -24v80q55 34 125 34q38 0 75 -16.5t73 -44t72.5 -57.5t87.5 -61.5t104 -51.5l-23 -85q-19 0 -55 -2v-52q0 -78 122 -78zM359 -70l-77 76l75 75l77 -75z" />
    <glyph glyph-name="uniFE9F" unicode="&#x62c;" horiz-adv-x="609" arabic-form="initial" 
d="M189 475q38 0 73.5 -14.5t69 -39t67.5 -51t83 -56t102 -48.5l-23 -85q-65 -12 -118.5 -36t-91 -48t-81 -46.5t-111 -36.5t-158.5 -14q-11 0 -11 11v69q0 10 11 10q87 0 159.5 15.5t113.5 34.5t97.5 47t97.5 42q-52 26 -108 68.5t-95 65t-82 22.5q-51 0 -120 -24v80
q55 34 125 34zM181 -151l75 75l77 -75l-75 -76z" />
    <glyph glyph-name="uniFEA0" unicode="&#x62c;" horiz-adv-x="631" arabic-form="medial" 
d="M631 90q10 0 10 -10v-69q0 -11 -10 -11q-171 0 -178 150q-40 -16 -92 -47t-88 -51t-107.5 -36t-164.5 -16q-11 0 -11 11v69q0 10 11 10q87 0 159.5 15.5t113.5 34.5t97.5 47t97.5 42q-52 26 -108 68.5t-95 65t-82 22.5q-51 0 -120 -24v80q55 34 125 34q38 0 73.5 -14.5
t69 -39t67.5 -51t83 -56t102 -48.5l-23 -85q-22 -4 -46 -11q0 -80 116 -80zM181 -151l75 75l77 -75l-75 -76z" />
    <glyph glyph-name="uniFEA2" unicode="&#x62d;" horiz-adv-x="651" arabic-form="final" 
d="M651 90q10 0 10 -10v-69q0 -11 -10 -11q-89 0 -137 38.5t-48 115.5v59q-144 -23 -242 -91.5t-98 -157.5q0 -72 53.5 -110.5t149.5 -38.5q99 0 228 37v-80q-138 -47 -233 -47q-135 0 -209.5 59t-74.5 172q0 127 115.5 215.5t315.5 111.5q-46 27 -103 72t-97 69t-81 24
q-51 0 -120 -24v80q55 34 125 34q38 0 75 -16.5t73 -44t72.5 -57.5t87.5 -61.5t104 -51.5l-23 -85q-19 0 -55 -2v-52q0 -78 122 -78z" />
    <glyph glyph-name="uniFEA3" unicode="&#x62d;" horiz-adv-x="609" arabic-form="initial" 
d="M189 475q38 0 73.5 -14.5t69 -39t67.5 -51t83 -56t102 -48.5l-23 -85q-65 -12 -118.5 -36t-91 -48t-81 -46.5t-111 -36.5t-158.5 -14q-11 0 -11 11v69q0 10 11 10q87 0 159.5 15.5t113.5 34.5t97.5 47t97.5 42q-52 26 -108 68.5t-95 65t-82 22.5q-51 0 -120 -24v80
q55 34 125 34z" />
    <glyph glyph-name="uniFEA4" unicode="&#x62d;" horiz-adv-x="631" arabic-form="medial" 
d="M631 90q10 0 10 -10v-69q0 -11 -10 -11q-171 0 -178 150q-40 -16 -92 -47t-88 -51t-107.5 -36t-164.5 -16q-11 0 -11 11v69q0 10 11 10q87 0 159.5 15.5t113.5 34.5t97.5 47t97.5 42q-52 26 -108 68.5t-95 65t-82 22.5q-51 0 -120 -24v80q55 34 125 34q38 0 73.5 -14.5
t69 -39t67.5 -51t83 -56t102 -48.5l-23 -85q-22 -4 -46 -11q0 -80 116 -80z" />
    <glyph glyph-name="uniFEA6" unicode="&#x62e;" horiz-adv-x="651" arabic-form="final" 
d="M501 626l-75 -75l-77 75l75 76zM651 90q10 0 10 -10v-69q0 -11 -10 -11q-89 0 -137 38.5t-48 115.5v59q-144 -23 -242 -91.5t-98 -157.5q0 -72 53.5 -110.5t149.5 -38.5q99 0 228 37v-80q-138 -47 -233 -47q-135 0 -209.5 59t-74.5 172q0 127 115.5 215.5t315.5 111.5
q-46 27 -103 72t-97 69t-81 24q-51 0 -120 -24v80q55 34 125 34q38 0 75 -16.5t73 -44t72.5 -57.5t87.5 -61.5t104 -51.5l-23 -85q-19 0 -55 -2v-52q0 -78 122 -78z" />
    <glyph glyph-name="uniFEA7" unicode="&#x62e;" horiz-adv-x="609" arabic-form="initial" 
d="M307 634l-75 -75l-77 75l75 76zM189 475q38 0 73.5 -14.5t69 -39t67.5 -51t83 -56t102 -48.5l-23 -85q-65 -12 -118.5 -36t-91 -48t-81 -46.5t-111 -36.5t-158.5 -14q-11 0 -11 11v69q0 10 11 10q87 0 159.5 15.5t113.5 34.5t97.5 47t97.5 42q-52 26 -108 68.5t-95 65
t-82 22.5q-51 0 -120 -24v80q55 34 125 34z" />
    <glyph glyph-name="uniFEA8" unicode="&#x62e;" horiz-adv-x="631" arabic-form="medial" 
d="M307 634l-75 -75l-77 75l75 76zM631 90q10 0 10 -10v-69q0 -11 -10 -11q-171 0 -178 150q-40 -16 -92 -47t-88 -51t-107.5 -36t-164.5 -16q-11 0 -11 11v69q0 10 11 10q87 0 159.5 15.5t113.5 34.5t97.5 47t97.5 42q-52 26 -108 68.5t-95 65t-82 22.5q-51 0 -120 -24v80
q55 34 125 34q38 0 73.5 -14.5t69 -39t67.5 -51t83 -56t102 -48.5l-23 -85q-22 -4 -46 -11q0 -80 116 -80z" />
    <glyph glyph-name="uniFEAA" unicode="&#x62f;" horiz-adv-x="518" arabic-form="final" 
d="M518 90q10 0 10 -10v-69q0 -11 -10 -11q-77 0 -128 52q-90 -52 -194 -52q-50 0 -84 6.5t-97 27.5v85q99 -29 181 -29t151 21q-12 23 -26 63q-40 122 -74 311h90q33 -206 64 -299q17 -50 45 -73t72 -23z" />
    <glyph glyph-name="uniFEAC" unicode="&#x630;" horiz-adv-x="518" arabic-form="final" 
d="M364 632l-75 -75l-77 75l75 76zM518 90q10 0 10 -10v-69q0 -11 -10 -11q-77 0 -128 52q-90 -52 -194 -52q-50 0 -84 6.5t-97 27.5v85q99 -29 181 -29t151 21q-12 23 -26 63q-40 122 -74 311h90q33 -206 64 -299q17 -50 45 -73t72 -23z" />
    <glyph glyph-name="uniFEAE" unicode="&#x631;" horiz-adv-x="341" arabic-form="final" 
d="M340 90q10 0 10 -10v-69q0 -11 -10 -11q-70 0 -102 45v-19q0 -116 -68.5 -178.5t-184.5 -62.5v82q77 0 124.5 42t47.5 121q0 138 -37 410h85q17 -120 26 -243l3 -22q6 -51 33 -68t73 -17z" />
    <glyph glyph-name="uniFEB0" unicode="&#x632;" horiz-adv-x="341" arabic-form="final" 
d="M230 593l-75 -75l-77 75l75 76zM340 90q10 0 10 -10v-69q0 -11 -10 -11q-70 0 -102 45v-19q0 -116 -68.5 -178.5t-184.5 -62.5v82q77 0 124.5 42t47.5 121q0 138 -37 410h85q17 -120 26 -243l3 -22q6 -51 33 -68t73 -17z" />
    <glyph glyph-name="uniFEB2" unicode="&#x633;" horiz-adv-x="1320" arabic-form="final" 
d="M1322 90q10 0 10 -10v-69q0 -11 -10 -11q-94 0 -169 67q-51 -67 -148 -67q-73 0 -164 53q-51 -53 -136 -53q-62 0 -137 38q-14 -117 -84.5 -185t-195.5 -68q-118 0 -183 71t-65 201q0 96 45 228h80q-45 -114 -45 -213q0 -94 43.5 -145.5t132.5 -51.5q101 0 148 54.5
t47 169.5q0 78 -39 341h85q33 -210 35 -319q62 -31 128 -31q78 0 105 54q26 51 26 226h79q0 -171 -30 -252q59 -28 120 -28q78 0 105 54q26 51 26 226v70h79v-70q0 -155 -25 -237q60 -43 137 -43z" />
    <glyph glyph-name="uniFEB3" unicode="&#x633;" horiz-adv-x="863" arabic-form="initial" 
d="M778 485q30 -206 30 -296q0 -85 -53.5 -137t-140.5 -52q-81 0 -175 57q-52 -57 -140 -57q-75 0 -169 57q-51 -57 -130 -57q-10 0 -10 11v69q0 10 10 10q64 0 91 54q26 51 26 226h79q0 -166 -29 -249q62 -31 127 -31q78 0 105 54q26 51 26 226h79q0 -166 -29 -249
q69 -31 129 -31q121 0 121 102q0 75 -32 293h85z" />
    <glyph glyph-name="uniFEB4" unicode="&#x633;" horiz-adv-x="913" arabic-form="medial" 
d="M913 90q10 0 10 -10v-69q0 -11 -10 -11q-93 0 -167 66q-52 -66 -147 -66q-73 0 -164 53q-51 -53 -136 -53q-75 0 -169 57q-51 -57 -130 -57q-10 0 -10 11v69q0 10 10 10q64 0 91 54q26 51 26 226h79q0 -166 -29 -249q62 -31 127 -31q78 0 105 54q26 51 26 226h79
q0 -171 -30 -252q59 -28 120 -28q78 0 105 54q26 51 26 226v70h79v-70q0 -158 -26 -239q60 -41 135 -41z" />
    <glyph glyph-name="uniFEB6" unicode="&#x634;" horiz-adv-x="1320" arabic-form="final" 
d="M926 671l-60 -60l-61 60l60 61zM859 550l-76 -75l-76 75l75 77zM947 475l-77 75l77 77l76 -77zM1322 90q10 0 10 -10v-69q0 -11 -10 -11q-94 0 -169 67q-51 -67 -148 -67q-73 0 -164 53q-51 -53 -136 -53q-62 0 -137 38q-14 -117 -84.5 -185t-195.5 -68q-118 0 -183 71
t-65 201q0 96 45 228h80q-45 -114 -45 -213q0 -94 43.5 -145.5t132.5 -51.5q101 0 148 54.5t47 169.5q0 78 -39 341h85q33 -210 35 -319q62 -31 128 -31q78 0 105 54q26 51 26 226h79q0 -171 -30 -252q59 -28 120 -28q78 0 105 54q26 51 26 226v70h79v-70q0 -155 -25 -237
q60 -43 137 -43z" />
    <glyph glyph-name="uniFEB7" unicode="&#x634;" horiz-adv-x="863" arabic-form="initial" 
d="M526 669l-60 -60l-61 60l60 61zM459 548l-76 -75l-76 75l75 77zM547 473l-77 75l77 77l76 -77zM778 485q30 -206 30 -296q0 -85 -53.5 -137t-140.5 -52q-81 0 -175 57q-52 -57 -140 -57q-75 0 -169 57q-51 -57 -130 -57q-10 0 -10 11v69q0 10 10 10q64 0 91 54
q26 51 26 226h79q0 -166 -29 -249q62 -31 127 -31q78 0 105 54q26 51 26 226h79q0 -166 -29 -249q69 -31 129 -31q121 0 121 102q0 75 -32 293h85z" />
    <glyph glyph-name="uniFEB8" unicode="&#x634;" horiz-adv-x="913" arabic-form="medial" 
d="M520 669l-60 -60l-61 60l60 61zM453 548l-76 -75l-76 75l75 77zM541 473l-77 75l77 77l76 -77zM913 90q10 0 10 -10v-69q0 -11 -10 -11q-93 0 -167 66q-52 -66 -147 -66q-73 0 -164 53q-51 -53 -136 -53q-75 0 -169 57q-51 -57 -130 -57q-10 0 -10 11v69q0 10 10 10
q64 0 91 54q26 51 26 226h79q0 -166 -29 -249q62 -31 127 -31q78 0 105 54q26 51 26 226h79q0 -171 -30 -252q59 -28 120 -28q78 0 105 54q26 51 26 226v70h79v-70q0 -158 -26 -239q60 -41 135 -41z" />
    <glyph glyph-name="uniFEBA" unicode="&#x635;" horiz-adv-x="1271" arabic-form="final" 
d="M1271 90q10 0 10 -10v-69q0 -11 -10 -11q-53 0 -94.5 18t-86.5 61q-111 -79 -284 -79q-95 0 -239 28q-16 -113 -86.5 -178t-192.5 -65q-118 0 -183 71t-65 201q0 96 45 228h80q-45 -114 -45 -213q0 -94 43.5 -145.5t132.5 -51.5q101 0 148 54.5t47 169.5q0 78 -39 341h85
q21 -139 28 -215q146 161 243.5 227t188.5 66q90 0 150.5 -61t60.5 -152q0 -103 -66 -178q57 -37 129 -37zM794 90q147 0 237.5 56t90.5 145q0 59 -39 98t-98 39q-43 0 -85.5 -17t-96 -59t-102 -88.5t-130.5 -129.5q1 -9 1 -26q105 -18 222 -18z" />
    <glyph glyph-name="uniFEBB" unicode="&#x635;" horiz-adv-x="997" arabic-form="initial" 
d="M741 513q91 0 151 -60.5t60 -152.5q0 -135 -110 -217.5t-291 -82.5q-199 0 -382 83q-30 -39 -75.5 -61t-93.5 -22q-10 0 -10 11v69q0 10 10 10q54 0 84 20t45 66q21 64 30 194h77q-14 -141 -32 -214v-1q51 -18 57 -20q132 159 220 242t143 109.5t117 26.5zM539 90
q148 0 237.5 53.5t89.5 142.5q0 58 -39 97.5t-98 39.5q-71 0 -151 -65t-233 -246q98 -22 194 -22z" />
    <glyph glyph-name="uniFEBC" unicode="&#x635;" horiz-adv-x="1016" arabic-form="medial" 
d="M1016 90q10 0 10 -10v-69q0 -11 -10 -11q-53 0 -95 17.5t-85 60.5q-109 -78 -285 -78q-199 0 -382 83q-30 -39 -75.5 -61t-93.5 -22q-10 0 -10 11v69q0 10 10 10q54 0 84 20t45 66q21 64 30 194h77q-14 -141 -32 -214v-1q51 -18 57 -20q132 159 220 242t143 109.5
t117 26.5q91 0 151 -60.5t60 -152.5q0 -102 -63 -174q55 -36 127 -36zM539 90q148 0 237.5 53.5t89.5 142.5q0 58 -39 97.5t-98 39.5q-71 0 -151 -65t-233 -246q98 -22 194 -22z" />
    <glyph glyph-name="uniFEBE" unicode="&#x636;" horiz-adv-x="1271" arabic-form="final" 
d="M845 632l-75 -75l-77 75l75 76zM1271 90q10 0 10 -10v-69q0 -11 -10 -11q-53 0 -94.5 18t-86.5 61q-111 -79 -284 -79q-95 0 -239 28q-16 -113 -86.5 -178t-192.5 -65q-118 0 -183 71t-65 201q0 96 45 228h80q-45 -114 -45 -213q0 -94 43.5 -145.5t132.5 -51.5
q101 0 148 54.5t47 169.5q0 78 -39 341h85q21 -139 28 -215q146 161 243.5 227t188.5 66q90 0 150.5 -61t60.5 -152q0 -103 -66 -178q57 -37 129 -37zM794 90q147 0 237.5 56t90.5 145q0 59 -39 98t-98 39q-43 0 -85.5 -17t-96 -59t-102 -88.5t-130.5 -129.5q1 -9 1 -26
q105 -18 222 -18z" />
    <glyph glyph-name="uniFEBF" unicode="&#x636;" horiz-adv-x="997" arabic-form="initial" 
d="M546 628l-75 -75l-77 75l75 76zM741 513q91 0 151 -60.5t60 -152.5q0 -135 -110 -217.5t-291 -82.5q-199 0 -382 83q-30 -39 -75.5 -61t-93.5 -22q-10 0 -10 11v69q0 10 10 10q54 0 84 20t45 66q21 64 30 194h77q-14 -141 -32 -214v-1q51 -18 57 -20q132 159 220 242
t143 109.5t117 26.5zM539 90q148 0 237.5 53.5t89.5 142.5q0 58 -39 97.5t-98 39.5q-71 0 -151 -65t-233 -246q98 -22 194 -22z" />
    <glyph glyph-name="uniFEC0" unicode="&#x636;" horiz-adv-x="1016" arabic-form="medial" 
d="M546 628l-75 -75l-77 75l75 76zM1016 90q10 0 10 -10v-69q0 -11 -10 -11q-53 0 -95 17.5t-85 60.5q-109 -78 -285 -78q-199 0 -382 83q-30 -39 -75.5 -61t-93.5 -22q-10 0 -10 11v69q0 10 10 10q54 0 84 20t45 66q21 64 30 194h77q-14 -141 -32 -214v-1q51 -18 57 -20
q132 159 220 242t143 109.5t117 26.5q91 0 151 -60.5t60 -152.5q0 -102 -63 -174q55 -36 127 -36zM539 90q148 0 237.5 53.5t89.5 142.5q0 58 -39 97.5t-98 39.5q-71 0 -151 -65t-233 -246q98 -22 194 -22z" />
    <glyph glyph-name="uniFEC2" unicode="&#x637;" horiz-adv-x="880" arabic-form="final" 
d="M880 90q10 0 10 -10v-69q0 -11 -10 -11q-53 0 -94 17.5t-85 59.5q-110 -77 -281 -77q-235 0 -405 43v85q34 -7 106 -19q53 63 62 73v543h85v-285q0 -64 -20 -184q136 154 212.5 208t152.5 54q89 0 149 -61t60 -152q0 -104 -67 -180q52 -35 125 -35zM408 90
q147 0 237.5 56t90.5 145q0 58 -39 97.5t-96 39.5q-67 0 -143 -66.5t-248 -262.5q96 -9 198 -9z" />
    <glyph glyph-name="uniFEC3" unicode="&#x637;" horiz-adv-x="792" arabic-form="initial" 
d="M539 518q89 0 148.5 -61t59.5 -152q0 -136 -110.5 -220.5t-291.5 -84.5h-345q-10 0 -10 11v69q0 10 10 10h46q16 21 67 84v551h85v-285q0 -59 -21 -189q132 156 209.5 211.5t152.5 55.5zM333 90q147 0 237.5 56t90.5 145q0 58 -38.5 97.5t-95.5 39.5q-67 0 -143.5 -69
t-248.5 -269h198z" />
    <glyph glyph-name="uniFEC4" unicode="&#x637;" horiz-adv-x="806" arabic-form="medial" 
d="M806 90q10 0 10 -10v-69q0 -11 -10 -11q-53 0 -94.5 17.5t-85.5 59.5q-108 -77 -281 -77h-345q-10 0 -10 11v69q0 10 10 10h46q16 21 67 84v551h85v-285q0 -59 -21 -189q132 156 209.5 211.5t152.5 55.5q89 0 148.5 -61t59.5 -152q0 -104 -67 -180q53 -35 126 -35z
M333 90q147 0 237.5 56t90.5 145q0 58 -38.5 97.5t-95.5 39.5q-67 0 -143.5 -69t-248.5 -269h198z" />
    <glyph glyph-name="uniFEC6" unicode="&#x638;" horiz-adv-x="880" arabic-form="final" 
d="M880 90q10 0 10 -10v-69q0 -11 -10 -11q-53 0 -94 17.5t-85 59.5q-110 -77 -281 -77q-235 0 -405 43v85q34 -7 106 -19q53 63 62 73v543h85v-285q0 -64 -20 -184q136 154 212.5 208t152.5 54q89 0 149 -61t60 -152q0 -104 -67 -180q52 -35 125 -35zM512 632l-75 -75
l-77 75l75 76zM408 90q147 0 237.5 56t90.5 145q0 58 -39 97.5t-96 39.5q-67 0 -143 -66.5t-248 -262.5q96 -9 198 -9z" />
    <glyph glyph-name="uniFEC7" unicode="&#x638;" horiz-adv-x="792" arabic-form="initial" 
d="M539 518q89 0 148.5 -61t59.5 -152q0 -136 -110.5 -220.5t-291.5 -84.5h-345q-10 0 -10 11v69q0 10 10 10h46q16 21 67 84v551h85v-285q0 -59 -21 -189q132 156 209.5 211.5t152.5 55.5zM438 632l-75 -75l-77 75l75 76zM333 90q147 0 237.5 56t90.5 145q0 58 -38.5 97.5
t-95.5 39.5q-67 0 -143.5 -69t-248.5 -269h198z" />
    <glyph glyph-name="uniFEC8" unicode="&#x638;" horiz-adv-x="806" arabic-form="medial" 
d="M806 90q10 0 10 -10v-69q0 -11 -10 -11q-53 0 -94.5 17.5t-85.5 59.5q-108 -77 -281 -77h-345q-10 0 -10 11v69q0 10 10 10h46q16 21 67 84v551h85v-285q0 -59 -21 -189q132 156 209.5 211.5t152.5 55.5q89 0 148.5 -61t59.5 -152q0 -104 -67 -180q53 -35 126 -35z
M438 632l-75 -75l-77 75l75 76zM333 90q147 0 237.5 56t90.5 145q0 58 -38.5 97.5t-95.5 39.5q-67 0 -143.5 -69t-248.5 -269h198z" />
    <glyph glyph-name="uniFECA" unicode="&#x639;" horiz-adv-x="596" arabic-form="final" 
d="M596 90q10 0 10 -10v-69q0 -11 -10 -11q-153 0 -291 102q-85 -49 -126.5 -89.5t-41.5 -88.5q0 -52 53 -80.5t151 -28.5t227 37v-80q-138 -47 -232 -47q-140 0 -212 49.5t-72 141.5q0 121 180 230q-79 137 -163 224q-17 -8 -34 -17v80q60 42 138.5 68.5t145.5 26.5
q93 0 154.5 -52t61.5 -128q0 -60 -43 -109t-116 -95q101 -54 220 -54zM306 438q-69 0 -164 -36q78 -79 158 -217q72 42 110.5 78t38.5 70q0 46 -40 75.5t-103 29.5z" />
    <glyph glyph-name="uniFECB" unicode="&#x639;" horiz-adv-x="543" arabic-form="initial" 
d="M339 106q64 7 179 26l-18 -89q-230 -43 -500 -43q-10 0 -10 11v69q0 10 10 10q61 0 149 2q-103 65 -103 180q0 90 64.5 151.5t160.5 61.5q66 0 170 -41v-80q-96 32 -157 32q-69 0 -110.5 -35.5t-41.5 -96.5q0 -60 54.5 -110.5t152.5 -47.5z" />
    <glyph glyph-name="uniFECC" unicode="&#x639;" horiz-adv-x="590" arabic-form="medial" 
d="M590 90q10 0 10 -10v-69q0 -11 -10 -11q-142 0 -260 47q-77 -27 -147 -37t-183 -10q-10 2 -10 11v69q0 10 10 10q142 0 225 13q-76 134 -162 224q-12 -5 -34 -17v80q60 42 138.5 68.5t145.5 26.5q93 0 154.5 -52t61.5 -128q0 -50 -27 -105t-81 -97q75 -13 169 -13z
M300 395q-70 0 -165 -36q89 -92 171 -246q57 26 97 76.5t40 94.5q0 50 -39 80.5t-104 30.5z" />
    <glyph glyph-name="uniFECE" unicode="&#x63a;" horiz-adv-x="596" arabic-form="final" 
d="M381 678l-75 -75l-77 75l75 76zM596 90q10 0 10 -10v-69q0 -11 -10 -11q-153 0 -291 102q-85 -49 -126.5 -89.5t-41.5 -88.5q0 -52 53 -80.5t151 -28.5t227 37v-80q-138 -47 -232 -47q-140 0 -212 49.5t-72 141.5q0 121 180 230q-79 137 -163 224q-17 -8 -34 -17v80
q60 42 138.5 68.5t145.5 26.5q93 0 154.5 -52t61.5 -128q0 -60 -43 -109t-116 -95q101 -54 220 -54zM306 438q-69 0 -164 -36q78 -79 158 -217q72 42 110.5 78t38.5 70q0 46 -40 75.5t-103 29.5z" />
    <glyph glyph-name="uniFECF" unicode="&#x63a;" horiz-adv-x="543" arabic-form="initial" 
d="M334 634l-75 -75l-77 75l75 76zM339 106q64 7 179 26l-18 -89q-230 -43 -500 -43q-10 0 -10 11v69q0 10 10 10q61 0 149 2q-103 65 -103 180q0 90 64.5 151.5t160.5 61.5q66 0 170 -41v-80q-96 32 -157 32q-69 0 -110.5 -35.5t-41.5 -96.5q0 -60 54.5 -110.5t152.5 -47.5
z" />
    <glyph glyph-name="uniFED0" unicode="&#x63a;" horiz-adv-x="590" arabic-form="medial" 
d="M372 634l-75 -75l-77 75l75 76zM590 90q10 0 10 -10v-69q0 -11 -10 -11q-142 0 -260 47q-77 -27 -147 -37t-183 -10q-10 2 -10 11v69q0 10 10 10q142 0 225 13q-76 134 -162 224q-12 -5 -34 -17v80q60 42 138.5 68.5t145.5 26.5q93 0 154.5 -52t61.5 -128q0 -50 -27 -105
t-81 -97q75 -13 169 -13zM300 395q-70 0 -165 -36q89 -92 171 -246q57 26 97 76.5t40 94.5q0 50 -39 80.5t-104 30.5z" />
    <glyph glyph-name="uniFED2" unicode="&#x641;" horiz-adv-x="964" arabic-form="final" 
d="M765 632l-75 -75l-77 75l75 76zM964 90q10 0 10 -10v-69q0 -11 -10 -11q-143 0 -268 35q-110 -33 -266 -35h-1h-137q-120 0 -186.5 59t-66.5 169q0 67 21 160h80q-16 -86 -16 -138q0 -84 43 -122t144 -38h109q87 0 140 6q-86 66 -86 168q0 94 63 157.5t155 63.5
q93 0 155 -62.5t62 -157.5q0 -98 -90 -169q55 -6 145 -6zM689 395q-56 0 -93 -37.5t-37 -99.5q0 -52 33 -94.5t92 -61.5q69 20 104 61t35 95q0 60 -37.5 98.5t-96.5 38.5z" />
    <glyph glyph-name="uniFED3" unicode="&#x641;" horiz-adv-x="521" arabic-form="initial" 
d="M340 632l-75 -75l-77 75l75 76zM262 485q91 0 152.5 -65t61.5 -161q0 -120 -71 -189.5t-195 -69.5h-210q-10 2 -10 11v69q0 10 10 10h111q-13 24 -27 46q-45 71 -45 140q0 87 64.5 148.5t158.5 60.5zM219 90q78 0 124.5 41.5t46.5 116.5q0 65 -37.5 105.5t-98.5 40.5
q-56 0 -93 -37.5t-37 -91.5q0 -47 36 -107q23 -38 35 -68h24z" />
    <glyph glyph-name="uniFED4" unicode="&#x641;" horiz-adv-x="544" arabic-form="medial" 
d="M348 632l-75 -75l-77 75l75 76zM544 90q10 0 10 -10v-69q0 -11 -10 -11q-143 0 -268 35q-115 -35 -276 -35q-10 2 -10 11v69q0 10 10 10q87 0 140 6q-86 66 -86 168q0 94 63 157.5t155 63.5q93 0 155 -62.5t62 -157.5q0 -98 -90 -169q55 -6 145 -6zM269 395
q-56 0 -93 -37.5t-37 -99.5q0 -52 33 -94.5t92 -61.5q69 20 104 61t35 95q0 60 -37.5 98.5t-96.5 38.5z" />
    <glyph glyph-name="uniFED6" unicode="&#x642;" horiz-adv-x="760" arabic-form="final" 
d="M490 629l-75 -73l-76 75l75 76l76 -74l75 74l76 -76l-76 -75zM760 90q10 0 10 -10v-69q0 -11 -10 -11h-62q-14 -101 -103 -158t-242 -57q-149 0 -231 67.5t-82 204.5q0 96 45 228h80q-45 -114 -45 -213q0 -100 63.5 -149t197.5 -49q97 0 158 34.5t76 91.5h-81
q-121 0 -190.5 61t-69.5 171q0 105 61.5 174t158.5 69q86 0 139 -57.5t59 -157.5q5 -120 7 -170h61zM359 236q0 -71 46.5 -108.5t134.5 -37.5h78q-1 25 -3 54t-4.5 60.5t-3.5 45.5q-4 66 -35 100.5t-83 34.5q-58 0 -94 -42t-36 -107z" />
    <glyph glyph-name="uniFED7" unicode="&#x642;" horiz-adv-x="521" arabic-form="initial" 
d="M265 629l-75 -73l-76 75l75 76l76 -74l75 74l76 -76l-76 -75zM262 485q91 0 152.5 -65t61.5 -161q0 -120 -71 -189.5t-195 -69.5h-210q-10 2 -10 11v69q0 10 10 10h111q-13 24 -27 46q-45 71 -45 140q0 87 64.5 148.5t158.5 60.5zM219 90q78 0 124.5 41.5t46.5 116.5
q0 65 -37.5 105.5t-98.5 40.5q-56 0 -93 -37.5t-37 -91.5q0 -47 36 -107q23 -38 35 -68h24z" />
    <glyph glyph-name="uniFED8" unicode="&#x642;" horiz-adv-x="544" arabic-form="medial" 
d="M273 629l-75 -73l-76 75l75 76l76 -74l75 74l76 -76l-76 -75zM544 90q10 0 10 -10v-69q0 -11 -10 -11q-143 0 -268 35q-115 -35 -276 -35q-10 2 -10 11v69q0 10 10 10q87 0 140 6q-86 66 -86 168q0 94 63 157.5t155 63.5q93 0 155 -62.5t62 -157.5q0 -98 -90 -169
q55 -6 145 -6zM269 395q-56 0 -93 -37.5t-37 -99.5q0 -52 33 -94.5t92 -61.5q69 20 104 61t35 95q0 60 -37.5 98.5t-96.5 38.5z" />
    <glyph glyph-name="uniFEDA" unicode="&#x643;" horiz-adv-x="877" arabic-form="final" 
d="M877 90q10 0 10 -10v-69q0 -11 -10 -11q-119 0 -171 72q-106 -71 -277 -72h-137q-120 0 -186.5 59t-66.5 169q0 67 21 160h80q-16 -86 -16 -138q0 -84 43 -122t144 -38h114q169 0 254 45q-6 25 -6 56v534h85v-531q0 -54 28 -79t91 -25zM522 357h-125q-48 0 -106 -17v70
q39 15 60 17q-22 23 -22 55q0 41 28.5 68.5t76.5 27.5q35 0 73 -19v-67q-42 13 -68 13q-21 0 -34.5 -10t-13.5 -27q0 -38 61 -38h92z" />
    <glyph glyph-name="uniFEDB" unicode="&#x643;" horiz-adv-x="581" arabic-form="initial" 
d="M342 423q204 -89 204 -223q0 -90 -71 -145t-192 -55h-283q-10 0 -10 11v69q0 10 10 10h291q74 0 122 30t48 76q0 41 -37 75t-124 73l-240 106v68l350 277h128v-4l-370 -291z" />
    <glyph glyph-name="uniFEDC" unicode="&#x643;" horiz-adv-x="649" arabic-form="medial" 
d="M649 90q10 0 10 -10v-69q0 -11 -10 -11q-91 0 -164 63q-72 -63 -202 -63h-283q-10 0 -10 11v69q0 10 10 10h291q74 0 122 30t48 76q0 41 -37 75t-124 73l-240 106v68l350 277h128v-4l-370 -291l174 -77q204 -89 204 -223q0 -42 -17 -79q51 -31 120 -31z" />
    <glyph glyph-name="uniFEDE" unicode="&#x644;" horiz-adv-x="686" arabic-form="final" 
d="M686 90q10 0 10 -10v-69q0 -11 -10 -11q-77 0 -115 42q-14 -119 -83.5 -188t-194.5 -69q-120 0 -186.5 71t-66.5 201q0 96 45 228h80q-45 -114 -45 -213q0 -93 45 -145t136 -52q99 0 143.5 55t44.5 172v623h85v-550q0 -40 30 -62.5t82 -22.5z" />
    <glyph glyph-name="uniFEDF" unicode="&#x644;" horiz-adv-x="289" arabic-form="initial" 
d="M119 725h85v-534q0 -90 -51.5 -140.5t-152.5 -50.5q-10 0 -10 11v69q0 10 10 10q63 0 91 25t28 79v531z" />
    <glyph glyph-name="uniFEE0" unicode="&#x644;" horiz-adv-x="318" arabic-form="medial" 
d="M318 90q10 0 10 -10v-69q0 -11 -10 -11q-114 0 -165 65q-33 -33 -66.5 -49t-86.5 -16q-10 0 -10 11v69q0 10 10 10q72 0 121 41q-7 25 -7 60v534h85v-531q0 -54 28 -79t91 -25z" />
    <glyph glyph-name="uniFEE2" unicode="&#x645;" horiz-adv-x="669" arabic-form="final" 
d="M669 90q10 0 10 -10v-69q0 -11 -10 -11q-77 0 -123 72l-18 -72q-219 0 -311 64q-24 16 -37 37q-60 -14 -60 -95q0 -76 33 -281h-85q-33 206 -33 292q0 69 35 115t94 59q6 60 33 121.5t76.5 107.5t107.5 46q61 0 100.5 -36.5t61.5 -113.5l29 -99q21 -71 42 -99t55 -28z
M231 157q110 -64 305 -67q-19 33 -40 100l-25 78q-17 56 -39.5 82t-55.5 26q-42 0 -82.5 -57t-62.5 -162z" />
    <glyph glyph-name="uniFEE3" unicode="&#x645;" horiz-adv-x="551" arabic-form="initial" 
d="M516 93l-67 -106q-207 0 -352 67q-36 -54 -97 -54q-10 2 -10 11v69q0 10 10 10q27 0 43 25.5t45 99.5q3 8 5 12.5t5 12t5 13.5q45 111 92 159.5t118 48.5q94 0 141.5 -93.5t61.5 -274.5zM138 134q122 -56 299 -56q-8 143 -42 217.5t-87 74.5q-42 0 -73 -35t-68 -130
q-27 -68 -29 -71z" />
    <glyph glyph-name="uniFEE4" unicode="&#x645;" horiz-adv-x="572" arabic-form="medial" 
d="M571 90q10 0 10 -10v-69q0 -11 -10 -11q-77 0 -123 72l-18 -72q-197 0 -293 53q-63 -53 -137 -53q-10 0 -10 11v69q0 10 10 10q44 0 80 14q-16 27 -16 57q0 59 25.5 128t78 123t115.5 54q61 0 100.5 -36.5t61.5 -113.5l29 -99q21 -71 42 -99t55 -28zM133 157
q110 -64 305 -67q-19 33 -40 100l-25 78q-17 56 -39.5 82t-55.5 26q-42 0 -82.5 -57t-62.5 -162z" />
    <glyph glyph-name="uniFEE6" unicode="&#x646;" horiz-adv-x="677" arabic-form="final" 
d="M381 470l-75 -75l-77 75l75 76zM676 90q10 0 10 -10v-69q0 -11 -10 -11q-74 0 -106 51q-12 -123 -83 -194.5t-199 -71.5q-118 0 -183 71t-65 201q0 96 45 228h80q-45 -114 -45 -213q0 -94 43.5 -145.5t132.5 -51.5q101 0 148 54.5t47 169.5q0 78 -39 341h85
q26 -173 32 -255l1 -10q6 -51 33 -68t73 -17z" />
    <glyph glyph-name="uniFEE7" unicode="&#x646;" horiz-adv-x="259" arabic-form="initial" 
d="M123 708l77 -76l-75 -75l-77 75zM174 485q30 -200 30 -294q0 -90 -51.5 -140.5t-152.5 -50.5q-10 0 -10 11v69q0 10 10 10q64 0 93 25.5t29 78.5q0 67 -33 291h85z" />
    <glyph glyph-name="uniFEE8" unicode="&#x646;" horiz-adv-x="300" arabic-form="medial" 
d="M237 527l-75 -75l-77 75l75 76zM300 90q10 0 10 -10v-69q0 -11 -10 -11q-89 0 -159 59q-50 -59 -141 -59q-10 0 -10 11v69q0 10 10 10q74 0 101 54q26 53 26 226h78q0 -163 -28 -247q53 -33 123 -33z" />
    <glyph glyph-name="uniFEE9" unicode="&#x647;" horiz-adv-x="823" arabic-form="isolated" 
d="M310 670q220 0 344 -101t124 -267q0 -93 -54 -236l-84 -79q-135 0 -283 51q-102 -38 -207 -38q-61 0 -135 23v85q72 -18 130 -18q31 0 66 6q-85 66 -85 168q0 94 62 157.5t153 63.5q93 0 153.5 -62.5t60.5 -157.5q0 -100 -92 -171q99 -17 178 -17q52 111 52 217
q0 56 -23 106t-68 91t-120.5 65t-171.5 24v90zM338 395q-56 0 -91.5 -37.5t-35.5 -99.5q0 -52 32.5 -94.5t89.5 -61.5q67 20 102 61t35 95q0 60 -36.5 98.5t-95.5 38.5z" />
    <glyph glyph-name="uniFEEA" unicode="&#x647;" horiz-adv-x="536" arabic-form="final" 
d="M536 90q10 0 10 -10v-69q0 -11 -10 -11q-86 0 -131 50q-91 -50 -163 -50q-90 0 -146 53t-56 139q0 33 9 65.5t32.5 68t58.5 64t92.5 51.5t129.5 33v64h85v-357q0 -46 20 -68.5t69 -22.5zM244 90q66 0 127 26q-9 33 -9 73v204q-109 -16 -173 -67.5t-64 -126.5
q0 -50 32 -79.5t87 -29.5z" />
    <glyph glyph-name="uniFEEB" unicode="&#x647;" horiz-adv-x="752" arabic-form="initial" 
d="M239 670q220 0 344 -101t124 -267q0 -88 -54 -236l-85 -79q-134 0 -284 51q-114 -38 -284 -38q-10 2 -10 11v69q0 10 10 10q89 0 139 7q-85 65 -85 167q0 94 62 157.5t153 63.5q94 0 154.5 -62.5t60.5 -157.5q0 -100 -92 -171q99 -17 178 -17q51 109 51 217
q0 119 -97.5 202.5t-285.5 83.5zM266 395q-55 0 -91 -37.5t-36 -99.5q0 -52 32.5 -94.5t89.5 -61.5q68 20 102.5 61t34.5 95q0 60 -36.5 98.5t-95.5 38.5z" />
    <glyph glyph-name="uniFEEC" unicode="&#x647;" horiz-adv-x="553" arabic-form="medial" 
d="M553 90q10 0 10 -11v-69q0 -10 -10 -10q-48 0 -96 17q38 -50 38 -97q0 -61 -45.5 -98t-121.5 -37q-94 0 -162.5 59t-91.5 158q-48 -2 -74 -2q-10 0 -10 11v69q0 10 10 10q43 0 63 1v8q0 119 51.5 242.5t157.5 218.5h67q68 -59 109 -133t41 -146q0 -103 -78 -170
q60 -21 142 -21zM143 118v-20q129 17 195 64t66 116q0 109 -105 207q-76 -68 -116 -170.5t-40 -196.5zM331 -126q40 0 63.5 15.5t23.5 44.5q0 57 -75 131q-76 -39 -185 -54q21 -68 68.5 -102.5t104.5 -34.5z" />
    <glyph glyph-name="uniFEEE" unicode="&#x648;" horiz-adv-x="531" arabic-form="final" 
d="M531 90q10 0 10 -10v-69q0 -11 -10 -11h-62q-11 -102 -98.5 -158.5t-250.5 -56.5v82q117 0 185 35t82 98h-82q-121 0 -190.5 61t-69.5 171q0 105 61.5 174t158.5 69q86 0 139 -57.5t59 -157.5q5 -114 7 -170h61zM130 236q0 -71 46.5 -108.5t134.5 -37.5h78q-2 34 -6.5 94
t-4.5 66q-4 66 -35 100.5t-83 34.5q-58 0 -94 -42t-36 -107z" />
    <glyph glyph-name="uniFEF0" unicode="&#x649;" horiz-adv-x="679" arabic-form="final" 
d="M679 90q10 0 10 -10v-69q0 -11 -10 -11h-9q-93 -215 -347 -215q-135 0 -209 69.5t-74 202.5q0 96 45 228h80q-45 -114 -45 -213q0 -101 55 -149t167 -48q178 0 251 133q-48 9 -108 26v85q130 -29 194 -29z" />
    <glyph glyph-name="uniFEF2" unicode="&#x64a;" horiz-adv-x="679" arabic-form="final" 
d="M679 90q10 0 10 -10v-69q0 -11 -10 -11h-9q-93 -215 -347 -215q-135 0 -209 69.5t-74 202.5q0 96 45 228h80q-45 -114 -45 -213q0 -101 55 -149t167 -48q178 0 251 133q-48 9 -108 26v85q130 -29 194 -29zM393 -347l75 73l76 -75l-76 -76l-75 74l-75 -74l-76 76l75 75z
" />
    <glyph glyph-name="uniFEF3" unicode="&#x64a;" horiz-adv-x="333" arabic-form="initial" 
d="M0 0q-10 0 -10 11v69q0 10 10 10h78q64 0 92.5 25.5t28.5 78.5q0 74 -32 291h85q30 -210 30 -294q0 -90 -51.5 -140.5t-152.5 -50.5h-78zM285 -153l-76 -76l-75 74l-75 -74l-76 76l75 75l76 -73l75 73z" />
    <glyph glyph-name="uniFEF4" unicode="&#x64a;" horiz-adv-x="370" arabic-form="medial" 
d="M370 90q10 0 10 -10v-69q0 -11 -10 -11q-98 0 -185 78q-57 -78 -185 -78q-10 0 -10 11v69q0 10 10 10q98 0 129 53q17 29 22 76.5t5 150.5h79q0 -155 -20 -226q73 -54 155 -54zM169 -151l75 73l76 -75l-76 -76l-75 74l-75 -74l-76 76l75 75z" />
    <glyph glyph-name=".notdef" horiz-adv-x="500" 
d="M0 725h500v-725h-500v725zM250 378l216 328h-433zM19 696v-667l220 333zM481 29v667l-221 -334zM33 19h433l-216 327z" />
    <glyph glyph-name=".null" 
 />
    <glyph glyph-name="nonmarkingreturn" horiz-adv-x="333" 
 />
    <glyph glyph-name="CR" unicode="&#xd;" horiz-adv-x="237" 
 />
    <glyph glyph-name="space" unicode=" " horiz-adv-x="237" 
 />
    <glyph glyph-name="exclam" unicode="!" horiz-adv-x="245" 
d="M94 212l-20 294v219h97v-219l-20 -294h-57zM65 0v115h115v-115h-115z" />
    <glyph glyph-name="quotedbl" unicode="&#x22;" horiz-adv-x="309" 
d="M129 725l-20 -240h-62l-20 240h102zM282 725l-20 -240h-62l-20 240h102z" />
    <glyph glyph-name="numbersign" unicode="#" horiz-adv-x="666" 
d="M207 538l26 187h74l-26 -187h156l26 187h74l-26 -187h134l-10 -71h-134l-24 -174h135l-10 -71h-135l-30 -222h-74l30 222h-156l-30 -222h-74l30 222h-141l10 71h141l24 174h-142l10 71h142zM247 293h156l24 174h-156z" />
    <glyph glyph-name="dollar" unicode="$" horiz-adv-x="587" 
d="M318 811v-73q103 -8 162 -68.5t58 -158.5h-94q-1 72 -36.5 108t-89.5 43v-248l15 -4q49 -13 82.5 -27t68.5 -37.5t53 -60.5t18 -86q0 -96 -67 -150.5t-170 -60.5v-85h-55v85q-104 9 -167.5 76t-62.5 166h94q1 -75 40 -117t96 -49v271l-22 6q-87 24 -138 75.5t-51 131.5
q0 82 62 132t149 58v73h55zM262 429l1 -1v235q-49 -3 -83 -32.5t-34 -81.5q0 -86 116 -120zM318 320v-257q61 4 102 35.5t41 86.5q0 59 -34 87t-109 48z" />
    <glyph glyph-name="percent" unicode="%" horiz-adv-x="998" 
d="M37 521q0 96 42 153.5t121 57.5q80 0 122.5 -57.5t42.5 -153.5t-42.5 -153.5t-122.5 -57.5q-79 0 -121 57.5t-42 153.5zM199 0l500 725h101l-500 -725h-101zM289 521q0 75 -23 116t-66 41q-42 0 -64.5 -41t-22.5 -116t22.5 -115.5t64.5 -40.5q43 0 66 40.5t23 115.5z
M637 204q0 96 42 153.5t121 57.5q80 0 122.5 -57.5t42.5 -153.5t-42.5 -153.5t-122.5 -57.5q-79 0 -121 57.5t-42 153.5zM889 204q0 75 -23 116t-66 41q-42 0 -64.5 -41t-22.5 -116t22.5 -115.5t64.5 -40.5q43 0 66 40.5t23 115.5z" />
    <glyph glyph-name="ampersand" unicode="&#x26;" horiz-adv-x="703" 
d="M28 199q0 80 49 136.5t134 85.5q-80 92 -80 164q0 70 54.5 112t140.5 42q76 0 131 -38t55 -118q0 -127 -150 -188l147 -156q29 72 35 154h94q-9 -123 -65 -221l162 -172h-131l-88 94q-101 -107 -247 -107q-109 0 -175 60.5t-66 151.5zM306 455l2 -3q53 19 85 53.5
t32 76.5t-27 61.5t-70 19.5q-42 0 -71 -18t-29 -53q0 -57 78 -137zM458 155l-194 208q-139 -50 -139 -160q0 -61 42.5 -99t101.5 -38q114 0 189 89z" />
    <glyph glyph-name="quotesingle" unicode="'" horiz-adv-x="156" 
d="M129 725l-20 -240h-62l-20 240h102z" />
    <glyph glyph-name="parenleft" unicode="(" horiz-adv-x="245" 
d="M170 725h75q-119 -193 -119 -450t119 -450h-75q-56 80 -97 196.5t-41 253.5q0 138 41 254t97 196z" />
    <glyph glyph-name="parenright" unicode=")" horiz-adv-x="245" 
d="M75 -175h-75q119 193 119 450t-119 450h75q56 -80 97 -196t41 -254q0 -137 -41 -253.5t-97 -196.5z" />
    <glyph glyph-name="asterisk" unicode="*" horiz-adv-x="352" 
d="M205 606l113 43l23 -56l-115 -40l69 -97l-46 -35l-74 101l-68 -101l-53 34l70 98l-113 40l20 56l113 -43v119h61v-119z" />
    <glyph glyph-name="plus" unicode="+" horiz-adv-x="678" 
d="M294 0v226h-226v86h226v220h91v-220h226v-86h-226v-226h-91z" />
    <glyph glyph-name="comma" unicode="," horiz-adv-x="245" 
d="M65 115h115v-123l-61 -131h-58l53 139h-49v115z" />
    <glyph glyph-name="hyphen" unicode="-" horiz-adv-x="405" 
d="M43 231v86h318v-86h-318z" />
    <glyph glyph-name="period" unicode="." horiz-adv-x="245" 
d="M65 0v115h115v-115h-115z" />
    <glyph glyph-name="slash" unicode="/" horiz-adv-x="377" 
d="M0 0l285 725h92l-286 -725h-91z" />
    <glyph glyph-name="zero" unicode="0" horiz-adv-x="661" 
d="M330 -13q-141 0 -211.5 99t-70.5 277q0 177 70.5 276t211.5 99t211.5 -99t70.5 -276q0 -178 -70.5 -277t-211.5 -99zM330 662q-87 0 -136 -75.5t-49 -223.5t49 -224t136 -76t136 76t49 224t-49 223.5t-136 75.5z" />
    <glyph glyph-name="one" unicode="1" horiz-adv-x="368" 
d="M180 0v567h-168v62q84 3 126.5 21.5t70.5 74.5h62v-725h-91z" />
    <glyph glyph-name="two" unicode="2" horiz-adv-x="590" 
d="M532 548q0 -61 -29 -121.5t-85.5 -120t-117 -109.5t-146.5 -112h398v-85h-522v82q103 76 172.5 133.5t125 115t82 108t26.5 97.5q0 57 -36 91.5t-100 34.5q-65 0 -110 -39.5t-46 -123.5h-94q-2 108 67.5 173.5t184.5 65.5q103 0 166.5 -50t63.5 -140z" />
    <glyph glyph-name="three" unicode="3" horiz-adv-x="587" 
d="M446 203q0 138 -209 138h-15v83h12q193 0 193 120q0 56 -40 87t-101 31q-70 0 -111 -38.5t-47 -102.5h-94q8 98 75 157.5t179 59.5q103 0 169 -45t66 -139q0 -56 -31 -100.5t-87 -67.5q138 -43 138 -182q0 -104 -75.5 -160.5t-186.5 -56.5q-120 0 -185 64t-73 163h94
q8 -70 49.5 -110.5t115.5 -40.5t119 37t45 103z" />
    <glyph glyph-name="four" unicode="4" horiz-adv-x="624" 
d="M602 179h-133v-179h-92v179h-360v86l359 460h93v-460h133v-86zM118 265h259v335z" />
    <glyph glyph-name="five" unicode="5" horiz-adv-x="607" 
d="M464 238q0 84 -48.5 128t-114.5 44q-52 0 -89 -24.5t-51 -55.5l-91 5l47 390h416v-85h-342l-25 -206q56 55 156 55t169 -67.5t69 -182.5q0 -119 -75 -185.5t-183 -66.5q-118 0 -182 63t-76 160h94q23 -147 164 -147q68 0 115 47t47 128z" />
    <glyph glyph-name="six" unicode="6" horiz-adv-x="615" 
d="M142 382q58 101 191 101q102 0 168 -69t66 -177q0 -104 -71 -177t-184 -73q-264 0 -264 350q0 64 9 120.5t30.5 109t53 90t80.5 59.5t110 22q99 0 155 -52t69 -129h-99q-9 49 -45 77t-91 28q-82 0 -128 -75.5t-50 -204.5zM311 63q70 0 114.5 47.5t44.5 121.5
q0 75 -44.5 123.5t-113.5 48.5q-71 0 -115 -48.5t-44 -123.5t43 -122t115 -47z" />
    <glyph glyph-name="seven" unicode="7" horiz-adv-x="513" 
d="M11 725h502v-85q-135 -110 -214.5 -274t-92.5 -366h-110q12 192 93 356.5t218 283.5h-396v85z" />
    <glyph glyph-name="eight" unicode="8" horiz-adv-x="626" 
d="M555 553q0 -49 -24.5 -94.5t-75.5 -72.5q65 -26 93.5 -75.5t28.5 -106.5q0 -101 -74.5 -159t-189.5 -58q-116 0 -190.5 58t-74.5 159q0 57 28.5 106.5t94.5 75.5q-51 27 -75.5 72.5t-24.5 94.5q0 81 66 133t176 52t176 -52t66 -133zM313 662q-68 0 -109.5 -33t-41.5 -87
q0 -55 41.5 -91t109.5 -36q67 0 108.5 36t41.5 91q0 54 -41.5 87t-108.5 33zM145 204q0 -64 45.5 -102.5t122.5 -38.5q76 0 122 38.5t46 102.5t-46 104t-122 40q-77 0 -122.5 -40t-45.5 -104z" />
    <glyph glyph-name="nine" unicode="9" horiz-adv-x="610" 
d="M467 343q-58 -101 -192 -101q-101 0 -167 69t-66 178q0 104 71 176.5t184 72.5q264 0 264 -350q0 -81 -15.5 -150t-47.5 -127t-88.5 -91t-131.5 -33q-99 0 -155 52t-69 129h99q9 -49 44.5 -77t90.5 -28q82 0 128.5 75.5t50.5 204.5zM298 662q-70 0 -114.5 -47.5
t-44.5 -121.5q0 -75 44 -123t114 -48q71 0 114.5 48t43.5 123q0 76 -43 122.5t-114 46.5z" />
    <glyph glyph-name="colon" unicode=":" horiz-adv-x="245" 
d="M65 423v115h115v-115h-115zM65 0v115h115v-115h-115z" />
    <glyph glyph-name="semicolon" unicode=";" horiz-adv-x="245" 
d="M65 423v115h115v-115h-115zM65 115h115v-123l-61 -131h-58l53 139h-49v115z" />
    <glyph glyph-name="less" unicode="&#x3c;" horiz-adv-x="678" 
d="M591 534v-98l-399 -168l399 -165v-97l-513 223v78z" />
    <glyph glyph-name="equal" unicode="=" horiz-adv-x="678" 
d="M89 332v87h501v-87h-501zM89 130v86h501v-86h-501z" />
    <glyph glyph-name="greater" unicode="&#x3e;" horiz-adv-x="678" 
d="M601 229l-513 -223v97l399 165l-399 168v98l513 -227v-78z" />
    <glyph glyph-name="question" unicode="?" horiz-adv-x="499" 
d="M484 562q0 -119 -135 -206q-50 -33 -67 -53.5t-17 -59.5v-31h-93v34q0 59 28 94.5t96 79.5q93 59 93 138q0 47 -37.5 75.5t-95.5 28.5q-76 0 -112 -41.5t-40 -97.5h-91q1 97 69.5 156t175.5 59q93 0 159.5 -45.5t66.5 -130.5zM163 0v115h115v-115h-115z" />
    <glyph glyph-name="at" unicode="@" horiz-adv-x="849" 
d="M508 245q-47 -89 -152 -89q-63 0 -105.5 45t-42.5 134q0 92 56.5 162t148.5 70q41 0 71 -20.5t44 -55.5l8 59h71l-29 -218q-16 -107 42 -107q40 0 67.5 48t27.5 129q0 122 -76 187.5t-202 65.5q-137 0 -224 -88t-87 -221q0 -125 73.5 -204.5t198.5 -79.5q109 0 194 43
l28 -69q-103 -49 -222 -49q-156 0 -254 102.5t-98 259.5q0 160 113 268t280 108q100 0 177.5 -33t126.5 -106.5t49 -179.5q0 -116 -53 -184.5t-125 -68.5q-41 0 -70.5 24t-35.5 68zM295 334q0 -105 83 -105q57 0 90 48t33 117q0 46 -23 72t-64 26q-54 0 -86.5 -46.5
t-32.5 -111.5z" />
    <glyph glyph-name="A" unicode="A" horiz-adv-x="660" 
d="M269 725h118l273 -725h-110l-57 157h-333l-56 -157h-104zM191 244h270l-136 378z" />
    <glyph glyph-name="B" unicode="B" horiz-adv-x="672" 
d="M86 725h261q255 0 255 -179q0 -52 -21.5 -95t-58.5 -65q110 -46 110 -172q0 -109 -71.5 -161.5t-188.5 -52.5h-286v725zM188 415h175q136 0 136 117q0 54 -36.5 80.5t-99.5 26.5h-175v-224zM188 86h185q154 0 154 127q0 63 -39 92t-121 29h-179v-248z" />
    <glyph glyph-name="C" unicode="C" horiz-adv-x="726" 
d="M694 231q-23 -117 -108 -180.5t-206 -63.5q-153 0 -241 104t-88 273t92 271.5t245 102.5q114 0 196.5 -65t105.5 -179h-99q-17 71 -70.5 114.5t-137.5 43.5q-100 0 -164 -76t-64 -212q0 -135 64 -213t167 -78q84 0 137.5 43t71.5 115h99z" />
    <glyph glyph-name="D" unicode="D" horiz-adv-x="730" 
d="M284 725q187 0 291 -83.5t104 -278.5q0 -101 -28.5 -173t-83 -113t-124 -59t-159.5 -18h-198v725h198zM281 639h-93v-553h93q51 0 89 5t79 21.5t66.5 46t42.5 81t17 123.5q0 71 -17 123t-43 81t-66.5 45.5t-78.5 21.5t-89 5z" />
    <glyph glyph-name="E" unicode="E" horiz-adv-x="613" 
d="M86 725h492v-88h-390v-220h367v-88h-367v-241h390v-88h-492v725z" />
    <glyph glyph-name="F" unicode="F" horiz-adv-x="560" 
d="M86 725h471v-88h-369v-220h348v-88h-348v-329h-102v725z" />
    <glyph glyph-name="G" unicode="G" horiz-adv-x="770" 
d="M688 514h-99q-19 64 -70.5 101t-135.5 37q-100 0 -164 -76t-64 -212q0 -135 63 -213t165 -78q40 0 75 9t67.5 29.5t52 59t19.5 92.5v19h-192v88h288v-370h-80l-5 91q-66 -104 -229 -104q-154 0 -241 104t-87 273t92 271.5t245 102.5q114 0 196 -60t104 -164z" />
    <glyph glyph-name="H" unicode="H" horiz-adv-x="757" 
d="M671 725v-725h-102v329h-381v-329h-102v725h102v-308h381v308h102z" />
    <glyph glyph-name="I" unicode="I" horiz-adv-x="274" 
d="M188 0h-102v725h102v-725z" />
    <glyph glyph-name="J" unicode="J" horiz-adv-x="552" 
d="M364 725h102v-495q0 -117 -60 -180t-168 -63t-167.5 60.5t-59.5 176.5h95q0 -73 37.5 -113.5t94.5 -40.5q53 0 89.5 36t36.5 125v494z" />
    <glyph glyph-name="K" unicode="K" horiz-adv-x="666" 
d="M188 360l327 365h127l-271 -296l302 -429h-122l-249 354l-114 -126v-228h-102v725h102v-365z" />
    <glyph glyph-name="L" unicode="L" horiz-adv-x="571" 
d="M188 88h383v-88h-485v725h102v-637z" />
    <glyph glyph-name="M" unicode="M" horiz-adv-x="884" 
d="M388 0l-200 632v-632h-102v725h171l185 -604l185 604h171v-725h-102v632l-200 -632h-108z" />
    <glyph glyph-name="N" unicode="N" horiz-adv-x="755" 
d="M520 0l-332 619v-619h-102v725h150l331 -617v617h102v-725h-149z" />
    <glyph glyph-name="O" unicode="O" horiz-adv-x="782" 
d="M391 -13q-155 0 -247.5 105t-92.5 271t92.5 270.5t247.5 104.5t247.5 -104.5t92.5 -270.5t-92.5 -271t-247.5 -105zM391 73q103 0 169.5 77t66.5 213t-66.5 212.5t-169.5 76.5t-169.5 -76.5t-66.5 -212.5t66.5 -213t169.5 -77z" />
    <glyph glyph-name="P" unicode="P" horiz-adv-x="636" 
d="M313 725q147 0 224 -47t77 -172q0 -66 -21.5 -110t-63.5 -67.5t-93.5 -32.5t-122.5 -9h-125v-287h-102v725h227zM188 639v-263h133q36 0 60.5 2t51 9.5t42 21t25.5 38t10 59.5q0 34 -10 59t-25.5 39t-41.5 22t-51 10.5t-61 2.5h-133z" />
    <glyph glyph-name="Q" unicode="Q" horiz-adv-x="782" 
d="M645 100l86 -86l-62 -62l-89 89q-80 -54 -189 -54q-155 0 -247.5 105t-92.5 271t92.5 270.5t247.5 104.5t247.5 -104.5t92.5 -270.5q0 -160 -86 -263zM391 73q67 0 122 35l-67 67l62 63l67 -68q52 76 52 193q0 136 -66.5 212.5t-169.5 76.5t-169.5 -76.5t-66.5 -212.5
t66.5 -213t169.5 -77z" />
    <glyph glyph-name="R" unicode="R" horiz-adv-x="679" 
d="M371 306q-18 -1 -55 -1h-128v-305h-102v725h230q72 0 123 -8.5t93.5 -30.5t64 -64.5t21.5 -105.5q0 -155 -144 -194l168 -322h-114zM188 639v-248h136q36 0 60.5 2t51 9t42 20t25.5 36t10 56t-10 56t-25.5 36.5t-41.5 21t-51 9.5t-61 2h-136z" />
    <glyph glyph-name="S" unicode="S" horiz-adv-x="641" 
d="M318 738q105 0 180 -49t95 -149h-99q-17 58 -67.5 85t-112.5 27q-54 0 -104 -26t-50 -80q0 -85 118 -111l84 -19q39 -8 68.5 -17t64.5 -26t57.5 -38t38 -55t15.5 -76q0 -102 -80.5 -159.5t-195.5 -57.5q-127 0 -205.5 64t-92.5 174h100q29 -152 200 -152q79 0 124 34
t45 88q0 53 -40 82t-116 46l-90 19q-86 19 -142.5 67t-56.5 131q0 65 42 111.5t99.5 66.5t120.5 20z" />
    <glyph glyph-name="T" unicode="T" horiz-adv-x="574" 
d="M236 637h-236v88h574v-88h-236v-637h-102v637z" />
    <glyph glyph-name="U" unicode="U" horiz-adv-x="731" 
d="M177 725v-441q0 -108 43.5 -158.5t143.5 -50.5q101 0 145.5 54.5t44.5 165.5v430h102v-422q0 -162 -68.5 -239t-223.5 -77q-153 0 -221 70.5t-68 237.5v430h102z" />
    <glyph glyph-name="V" unicode="V" horiz-adv-x="638" 
d="M123 725l201 -620l197 620h107l-246 -725h-122l-249 725h112z" />
    <glyph glyph-name="W" unicode="W" horiz-adv-x="922" 
d="M665 116l134 609h107l-181 -725h-124l-140 596l-137 -596h-124l-184 725h112l140 -609l134 609h120z" />
    <glyph glyph-name="X" unicode="X" horiz-adv-x="656" 
d="M269 373l-251 352h121l191 -268l193 268h115l-251 -348l269 -377h-120l-210 293l-211 -293h-115z" />
    <glyph glyph-name="Y" unicode="Y" horiz-adv-x="624" 
d="M112 725l198 -354l202 354h112l-266 -444v-281h-102v283l-256 442h112z" />
    <glyph glyph-name="Z" unicode="Z" horiz-adv-x="633" 
d="M588 637l-426 -549h442v-88h-563v88l427 549h-394v88h514v-88z" />
    <glyph glyph-name="bracketleft" unicode="[" horiz-adv-x="316" 
d="M306 725v-77h-137v-746h137v-77h-225v900h225z" />
    <glyph glyph-name="backslash" unicode="\" horiz-adv-x="377" 
d="M377 0h-92l-285 725h91z" />
    <glyph glyph-name="bracketright" unicode="]" horiz-adv-x="316" 
d="M235 725v-900h-225v77h137v746h-137v77h225z" />
    <glyph glyph-name="asciicircum" unicode="^" horiz-adv-x="441" 
d="M462 338h-98l-146 273l-143 -273h-97l201 387h78z" />
    <glyph glyph-name="underscore" unicode="_" horiz-adv-x="458" 
d="M32 -87v86h394v-86h-394z" />
    <glyph glyph-name="grave" unicode="`" horiz-adv-x="251" 
d="M22 725h116l91 -116h-77z" />
    <glyph glyph-name="a" unicode="a" horiz-adv-x="559" 
d="M40 142q0 46 24.5 79t76 54t112 33.5t151.5 22.5v13q0 69 -33.5 100t-88.5 31q-56 0 -88 -28.5t-35 -78.5h-94q6 83 69.5 132t146.5 49q111 0 163 -54t51 -168l-1 -124q-1 -125 14 -203h-92q-6 39 -7 74q-52 -87 -184 -87q-79 0 -132 41.5t-53 113.5zM411 259
q-67 -7 -112.5 -15t-83.5 -21t-56 -32.5t-18 -46.5q0 -39 28 -62t76 -23q72 0 119 39t47 127v34z" />
    <glyph glyph-name="b" unicode="b" horiz-adv-x="601" 
d="M163 725v-272q54 94 176 94q96 0 163 -76t67 -204q0 -129 -66.5 -204.5t-163.5 -75.5q-122 0 -176 94v-81h-91v725h91zM316 65q71 0 112.5 53.5t41.5 148.5t-41.5 148.5t-112.5 53.5q-66 0 -111.5 -51t-45.5 -151t45.5 -151t111.5 -51z" />
    <glyph glyph-name="c" unicode="c" horiz-adv-x="557" 
d="M520 358h-92q-10 48 -48.5 78.5t-90.5 30.5q-65 0 -110 -51t-45 -147q0 -97 45 -149.5t110 -52.5q55 0 94 31.5t49 76.5h94q-14 -78 -81.5 -133t-158.5 -55q-114 0 -182.5 78t-68.5 203q0 122 71 200.5t189 78.5q92 0 153.5 -57.5t71.5 -131.5z" />
    <glyph glyph-name="d" unicode="d" horiz-adv-x="604" 
d="M441 725h91v-725h-91v81q-54 -94 -176 -94q-97 0 -163.5 75.5t-66.5 204.5q0 128 67 204t163 76q122 0 176 -94v272zM288 469q-71 0 -112.5 -53.5t-41.5 -148.5t41.5 -148.5t112.5 -53.5q66 0 111.5 51t45.5 151t-45.5 151t-111.5 51z" />
    <glyph glyph-name="e" unicode="e" horiz-adv-x="581" 
d="M133 239q3 -82 52 -127t114 -45q108 0 147 89h94q-20 -74 -83.5 -121.5t-157.5 -47.5q-124 0 -194 79t-70 202q0 125 74.5 202t186.5 77q121 0 190.5 -89t60.5 -219h-414zM134 317h317q-2 61 -44 106.5t-111 45.5q-66 0 -111 -37.5t-51 -114.5z" />
    <glyph glyph-name="f" unicode="f" horiz-adv-x="313" 
d="M95 577q0 87 28 117.5t117 30.5h47v-76h-45q-36 0 -46 -12.5t-10 -54.5v-44h101v-73h-101v-465h-91v465h-75v73h75v39z" />
    <glyph glyph-name="g" unicode="g" horiz-adv-x="597" 
d="M434 538h91v-466q0 -77 -12.5 -119t-38.5 -70q-62 -71 -186 -71q-93 0 -150.5 42t-70.5 123h97q21 -85 125 -85q73 0 110 40q35 37 35 119v51q-54 -93 -171 -93q-94 0 -161 72.5t-67 196.5t67 196.5t161 72.5q117 0 171 -94v85zM286 469q-68 0 -110 -50.5t-42 -140.5
t42 -141t110 -51q66 0 109 47.5t43 144.5q0 96 -43 143.5t-109 47.5z" />
    <glyph glyph-name="h" unicode="h" horiz-adv-x="578" 
d="M163 457q55 90 174 90q177 0 177 -207v-340h-91v313q0 74 -23.5 114.5t-94.5 40.5q-67 0 -104.5 -45.5t-37.5 -130.5v-292h-91v725h91v-268z" />
    <glyph glyph-name="i" unicode="i" horiz-adv-x="235" 
d="M163 725v-110h-91v110h91zM163 538v-538h-91v538h91z" />
    <glyph glyph-name="j" unicode="j" horiz-adv-x="235" 
d="M163 725v-110h-91v110h91zM72 538h91v-565q0 -86 -25.5 -117t-101.5 -31h-46v76h26q35 0 45.5 13.5t10.5 56.5v567z" />
    <glyph glyph-name="k" unicode="k" horiz-adv-x="505" 
d="M163 725v-429l217 242h112l-205 -223l233 -315h-111l-183 248l-63 -68v-180h-91v725h91z" />
    <glyph glyph-name="l" unicode="l" horiz-adv-x="235" 
d="M163 0h-91v725h91v-725z" />
    <glyph glyph-name="m" unicode="m" horiz-adv-x="899" 
d="M163 0h-91v538h91v-81q55 90 162 90q116 0 155 -95q62 95 181 95q174 0 174 -207v-340h-91v313q0 73 -23.5 114t-91.5 41q-60 0 -95 -45.5t-35 -130.5v-292h-91v313q0 73 -23.5 114t-91.5 41q-60 0 -95 -45.5t-35 -130.5v-292z" />
    <glyph glyph-name="n" unicode="n" horiz-adv-x="578" 
d="M163 457q55 90 174 90q177 0 177 -207v-340h-91v313q0 74 -23.5 114.5t-94.5 40.5q-67 0 -104.5 -45.5t-37.5 -130.5v-292h-91v538h91v-81z" />
    <glyph glyph-name="o" unicode="o" horiz-adv-x="590" 
d="M553 267q0 -136 -77 -208t-181 -72t-181 72t-77 208t77 208t181 72t181 -72t77 -208zM295 67q67 0 114 51.5t47 148.5q0 100 -46.5 150t-114.5 50q-69 0 -115 -48.5t-46 -151.5q0 -100 46.5 -150t114.5 -50z" />
    <glyph glyph-name="p" unicode="p" horiz-adv-x="604" 
d="M163 538v-85q54 94 176 94q96 0 163 -76t67 -204q0 -129 -66.5 -204.5t-163.5 -75.5q-122 0 -176 94v-256h-91v713h91zM316 65q71 0 112.5 53.5t41.5 148.5t-41.5 148.5t-112.5 53.5q-66 0 -111.5 -51t-45.5 -151t45.5 -151t111.5 -51z" />
    <glyph glyph-name="q" unicode="q" horiz-adv-x="604" 
d="M441 538h91v-713h-91v256q-54 -94 -176 -94q-97 0 -163.5 75.5t-66.5 204.5q0 128 67 204t163 76q122 0 176 -94v85zM288 469q-71 0 -112.5 -53.5t-41.5 -148.5t41.5 -148.5t112.5 -53.5q66 0 111.5 51t45.5 151t-45.5 151t-111.5 51z" />
    <glyph glyph-name="r" unicode="r" horiz-adv-x="355" 
d="M340 443q-38 4 -51 4q-64 0 -95 -39t-31 -126v-282h-91v538h89v-94q42 94 152 97q17 0 27 -1v-97z" />
    <glyph glyph-name="s" unicode="s" horiz-adv-x="525" 
d="M380 381q-19 89 -127 89q-45 0 -79 -17t-34 -51q0 -57 82 -73l76 -15q40 -8 70.5 -19t57.5 -29t41.5 -46t14.5 -66q0 -77 -62 -122t-157 -45q-100 0 -161.5 55.5t-69.5 131.5h96q22 -110 137 -110q53 0 89 22t36 58q0 66 -109 89l-80 16q-153 31 -153 149
q0 69 61.5 109.5t153.5 40.5q86 0 142.5 -45t69.5 -122h-95z" />
    <glyph glyph-name="t" unicode="t" horiz-adv-x="325" 
d="M98 673h91v-135h102v-73h-102v-319q0 -44 9.5 -57t46.5 -13h46v-76h-66q-78 0 -102.5 26t-24.5 109v330h-85v73h85v135z" />
    <glyph glyph-name="u" unicode="u" horiz-adv-x="568" 
d="M405 77q-55 -90 -169 -90q-172 0 -172 207v344h91v-317q0 -35 4 -60t15 -48t34.5 -35t59.5 -12q65 0 101 45.5t36 130.5v296h91v-538h-91v77z" />
    <glyph glyph-name="v" unicode="v" horiz-adv-x="487" 
d="M247 126l146 412h94l-203 -538h-81l-203 538h101z" />
    <glyph glyph-name="w" unicode="w" horiz-adv-x="720" 
d="M313 538h94l107 -398l103 398h98l-155 -538h-83l-119 433l-115 -433h-83l-155 538h98l103 -398z" />
    <glyph glyph-name="x" unicode="x" horiz-adv-x="520" 
d="M311 281l201 -281h-109l-146 205l-145 -205h-104l198 277l-186 261h109l131 -185l132 185h102z" />
    <glyph glyph-name="y" unicode="y" horiz-adv-x="466" 
d="M466 538l-192 -561q-30 -91 -65 -121.5t-122 -30.5h-47v76h37q51 0 73.5 15t39.5 73l4 11l-194 538h101l137 -415l133 415h95z" />
    <glyph glyph-name="z" unicode="z" horiz-adv-x="488" 
d="M33 79l311 380h-291v79h397v-79l-310 -380h316v-79h-423v79z" />
    <glyph glyph-name="braceleft" unicode="{" horiz-adv-x="290" 
d="M87 -27v163q0 53 -15 78t-61 25v73q46 0 61 25t15 78v162q0 87 28.5 117.5t117.5 30.5h47v-77h-45q-35 0 -45.5 -13.5t-10.5 -56.5v-165q0 -65 -20.5 -95t-63.5 -41v-3q43 -11 63.5 -41t20.5 -95v-166q0 -43 10.5 -56.5t45.5 -13.5h45v-77h-47q-89 0 -117.5 30.5
t-28.5 117.5z" />
    <glyph glyph-name="bar" unicode="|" horiz-adv-x="255" 
d="M169 725v-815h-83v815h83z" />
    <glyph glyph-name="braceright" unicode="}" horiz-adv-x="290" 
d="M10 -98h45q35 0 45.5 13.5t10.5 56.5v166q0 65 20.5 95t63.5 41v3q-43 11 -63.5 41t-20.5 95v165q0 43 -10.5 56.5t-45.5 13.5h-45v77h47q89 0 117.5 -30.5t28.5 -117.5v-162q0 -53 15 -78t61 -25v-73q-46 0 -61 -25t-15 -78v-163q0 -87 -28.5 -117.5t-117.5 -30.5h-47
v77z" />
    <glyph glyph-name="asciitilde" unicode="~" horiz-adv-x="678" 
d="M521 355h85q-5 -66 -46 -107t-108 -41q-43 0 -118.5 34t-107.5 34q-29 0 -48 -18t-21 -50h-85q4 66 45.5 107t108.5 41q52 0 126 -34.5t100 -34.5q28 0 47 18.5t22 50.5z" />
    <glyph glyph-name="uni00A0" unicode="&#xa0;" horiz-adv-x="237" 
 />
    <glyph glyph-name="exclamdown" unicode="&#xa1;" horiz-adv-x="245" 
d="M65 423v115h115v-115h-115zM171 -175h-97v208l20 293h57l20 -293v-208z" />
    <glyph glyph-name="cent" unicode="&#xa2;" horiz-adv-x="546" 
d="M305 628v-81q88 -4 143.5 -60.5t65.5 -128.5h-92q-9 44 -40 73.5t-77 34.5v-398q49 5 80 35t41 72h94q-13 -74 -71.5 -127t-143.5 -60v-85h-46v85q-105 9 -164.5 85t-59.5 195q0 114 59.5 190t164.5 87v83h46zM259 69v395q-56 -9 -90.5 -59t-34.5 -136q0 -88 34.5 -139
t90.5 -61z" />
    <glyph glyph-name="sterling" unicode="&#xa3;" horiz-adv-x="571" 
d="M159 551q0 -10 1.5 -20.5t3 -18.5t6 -20t6.5 -18.5t8.5 -20.5t8.5 -18t10.5 -20t9.5 -19h193v-65h-164q14 -42 14 -74q0 -99 -106 -161l1 -2q37 13 68 13q27 0 83.5 -19.5t94.5 -19.5q55 0 120 27l27 -79q-58 -33 -139 -33q-38 0 -103.5 20t-105.5 20q-74 0 -146 -40
l-30 73q48 20 94 68.5t46 117.5q0 43 -18 89h-121v65h91q-50 100 -50 159q0 92 71 137.5t169 45.5q114 0 179 -64t63 -170h-94q-3 157 -152 157q-55 0 -97 -26.5t-42 -83.5z" />
    <glyph glyph-name="currency" unicode="&#xa4;" horiz-adv-x="636" 
d="M123 485l-69 70l49 49l68 -68q63 49 144 49q83 0 147 -51l71 70l49 -49l-72 -72q44 -64 44 -137q0 -76 -44 -137l72 -71l-49 -49l-71 70q-65 -49 -147 -49q-79 0 -143 48l-69 -69l-49 49l69 70q-44 61 -44 138q0 78 44 139zM314 185q70 0 115 46.5t45 114.5
q0 70 -45 117.5t-115 47.5q-66 0 -109 -47.5t-43 -117.5q0 -68 43 -114.5t109 -46.5z" />
    <glyph glyph-name="yen" unicode="&#xa5;" horiz-adv-x="603" 
d="M343 111v-111h-92v111h-163v64h163v76h-163v64h138l-231 410h107l198 -375l202 375h106l-239 -410h145v-64h-171v-76h171v-64h-171z" />
    <glyph glyph-name="brokenbar" unicode="&#xa6;" horiz-adv-x="227" 
d="M155 725v-305h-83v305h83zM155 215v-305h-83v305h83z" />
    <glyph glyph-name="section" unicode="&#xa7;" horiz-adv-x="580" 
d="M396 -36q0 31 -19.5 54.5t-76.5 53.5l-130 69q-133 72 -133 174q0 51 36.5 89t93.5 57q-81 53 -81 136q0 67 58 104t137 37q88 0 143.5 -43.5t66.5 -116.5h-95q-15 84 -119 84q-44 0 -71 -16.5t-27 -44.5q0 -27 18 -47t63 -44l137 -74q74 -39 110.5 -77.5t36.5 -95.5
q0 -53 -33.5 -95.5t-90.5 -66.5q69 -53 69 -123q0 -77 -58 -120t-145 -43q-94 0 -152.5 50t-65.5 136h94q16 -110 126 -110q49 0 78.5 19t29.5 54zM239 421q-45 -13 -78.5 -39.5t-33.5 -60.5q0 -30 18 -53t61 -46l137 -74l10 -6q100 44 100 105q0 34 -24 60t-79 55z" />
    <glyph glyph-name="dieresis" unicode="&#xa8;" horiz-adv-x="365" 
d="M22 725h91v-99h-91v99zM343 725v-99h-92v99h92z" />
    <glyph glyph-name="copyright" unicode="&#xa9;" horiz-adv-x="825" 
d="M413 738q158 0 266 -106t108 -271q0 -164 -108 -269t-266 -105q-159 0 -267 105t-108 269q0 165 108 271t267 106zM413 54q130 0 215 85.5t85 221.5q0 138 -85 224t-215 86q-129 0 -215 -86.5t-86 -223.5q0 -135 86 -221t215 -86zM513 302l76 -20q-18 -52 -63 -85.5
t-114 -33.5q-90 0 -139 55t-49 153q0 96 51 150.5t140 54.5q68 0 112 -35t59 -92l-75 -21q-10 41 -36.5 63t-62.5 22q-48 0 -77 -36t-29 -106t29 -107t77 -37q81 0 101 75z" />
    <glyph glyph-name="ordfeminine" unicode="&#xaa;" horiz-adv-x="345" 
d="M140 431q-52 0 -81.5 24t-29.5 64q0 29 15.5 49.5t46 32t63 17.5t77.5 9v13q0 58 -64 58q-23 0 -40 -13t-18 -39h-71q3 47 39.5 76t95.5 29q60 0 96 -29.5t35 -99.5q-2 -46 -2 -89q2 -68 6 -95h-66q-1 18 -1 42q-26 -49 -101 -49zM231 563v12q-74 -8 -100 -18.5
t-26 -34.5q0 -17 13 -26.5t32 -9.5q81 0 81 77z" />
    <glyph glyph-name="guillemotleft" unicode="&#xab;" horiz-adv-x="514" 
d="M10 273l159 228h98l-150 -228l150 -229h-98zM235 273l159 228h98l-150 -228l150 -229h-98z" />
    <glyph glyph-name="logicalnot" unicode="&#xac;" horiz-adv-x="678" 
d="M58 344v86h522v-332h-92v246h-430z" />
    <glyph glyph-name="uni00AD" unicode="&#xad;" horiz-adv-x="405" 
d="M43 231v86h318v-86h-318z" />
    <glyph glyph-name="registered" unicode="&#xae;" horiz-adv-x="825" 
d="M413 738q158 0 266 -106t108 -271q0 -164 -108 -269t-266 -105q-159 0 -267 105t-108 269q0 165 108 271t267 106zM413 54q130 0 215 85.5t85 221.5q0 138 -85 224t-215 86q-129 0 -215 -86.5t-86 -223.5q0 -135 86 -221t215 -86zM425 328h-76v-152h-82v399h122
q97 0 142.5 -25.5t45.5 -98.5q0 -74 -72 -106l92 -169h-91zM402 510h-53v-119h58q88 0 88 59q0 34 -24 47t-69 13z" />
    <glyph glyph-name="macron" unicode="&#xaf;" horiz-adv-x="344" 
d="M22 635v75h300v-75h-300z" />
    <glyph glyph-name="degree" unicode="&#xb0;" horiz-adv-x="337" 
d="M168 738q62 0 105 -43t43 -104t-43.5 -104t-104.5 -43q-60 0 -103 43t-43 104t43 104t103 43zM168 512q33 0 54.5 23t21.5 56t-21.5 56t-54.5 23q-32 0 -52.5 -23t-20.5 -56t20.5 -56t52.5 -23z" />
    <glyph glyph-name="plusminus" unicode="&#xb1;" horiz-adv-x="678" 
d="M293 532h92v-155h215v-86h-215v-156h-92v156h-215v86h215v155zM78 0v86h522v-86h-522z" />
    <glyph glyph-name="uni00B2" unicode="&#xb2;" horiz-adv-x="348" 
d="M312 745q0 -58 -51 -117t-151 -127h211v-63h-299v59q115 92 164.5 144.5t49.5 98.5q0 28 -17 43.5t-45 15.5q-31 0 -51.5 -21t-19.5 -64h-73q-1 62 39.5 100.5t107.5 38.5q59 0 97 -29t38 -79z" />
    <glyph glyph-name="uni00B3" unicode="&#xb3;" horiz-adv-x="361" 
d="M257 553q0 68 -95 68h-24v59h20q90 0 90 61q0 28 -19.5 43t-48.5 15q-70 0 -81 -77h-70q5 61 46 96t110 35q56 0 96.5 -27.5t40.5 -81.5q0 -29 -15.5 -53t-41.5 -37q32 -13 49.5 -40t17.5 -59q0 -60 -44.5 -92t-110.5 -32q-68 0 -108.5 39t-44.5 97h70q6 -36 26.5 -58.5
t57.5 -22.5q35 0 57 18t22 49z" />
    <glyph glyph-name="acute" unicode="&#xb4;" horiz-adv-x="251" 
d="M98 609h-76l90 116h117z" />
    <glyph glyph-name="uni00B5" unicode="&#xb5;" horiz-adv-x="574" 
d="M70 -17v555h91v-316q0 -85 28 -120t88 -35q63 0 98 44.5t35 127.5v299h91v-538h-91v74q-23 -39 -57 -63t-72 -24q-77 0 -120 60v-56q0 -114 -12 -166h-90q11 48 11 158z" />
    <glyph glyph-name="paragraph" unicode="&#xb6;" horiz-adv-x="521" 
d="M241 725h208v-814h-76v744h-121v-744h-76v449q-74 8 -125 53t-51 124q0 89 61 138.5t180 49.5z" />
    <glyph glyph-name="periodcentered" unicode="&#xb7;" horiz-adv-x="245" 
d="M65 212v115h115v-115h-115z" />
    <glyph glyph-name="cedilla" unicode="&#xb8;" horiz-adv-x="245" 
d="M38 -136q30 -14 58 -14q61 0 61 32q0 30 -44 30q-25 0 -38 -9l-30 17l51 83h53l-32 -51q15 3 30 3q36 0 56 -18.5t20 -49.5q0 -37 -33 -59.5t-75 -22.5q-54 0 -93 19z" />
    <glyph glyph-name="uni00B9" unicode="&#xb9;" horiz-adv-x="232" 
d="M102 438v308h-89v50q49 1 71.5 10t36.5 40h55v-408h-74z" />
    <glyph glyph-name="ordmasculine" unicode="&#xba;" horiz-adv-x="355" 
d="M29 589q0 77 43 118t106 41t106 -41t43 -118t-43 -117.5t-106 -40.5t-106 40.5t-43 117.5zM253 589q0 49 -20.5 75t-54.5 26q-33 0 -53.5 -26.5t-20.5 -74.5t20.5 -74t53.5 -26q35 0 55 25.5t20 74.5z" />
    <glyph glyph-name="guillemotright" unicode="&#xbb;" horiz-adv-x="514" 
d="M120 44h-98l151 229l-151 228h98l159 -228zM345 44h-98l151 229l-151 228h98l159 -228z" />
    <glyph glyph-name="onequarter" unicode="&#xbc;" horiz-adv-x="810" 
d="M102 317v308h-89v50q49 1 71.5 10t36.5 40h55v-408h-74zM32 0l500 725h101l-500 -725h-101zM794 94h-70v-94h-74v94h-201v58l202 256h73v-253h70v-61zM528 155h122v159z" />
    <glyph glyph-name="onehalf" unicode="&#xbd;" horiz-adv-x="780" 
d="M102 317v308h-89v50q49 1 71.5 10t36.5 40h55v-408h-74zM32 0l500 725h101l-500 -725h-101zM745 307q0 -58 -51 -117t-151 -127h211v-63h-299v59q115 92 164.5 144.5t49.5 98.5q0 28 -17 43.5t-45 15.5q-31 0 -51.5 -21t-19.5 -64h-73q-1 62 39.5 100.5t107.5 38.5
q59 0 97 -29t38 -79z" />
    <glyph glyph-name="threequarters" unicode="&#xbe;" horiz-adv-x="939" 
d="M257 432q0 68 -95 68h-24v59h20q90 0 90 61q0 28 -19.5 43t-48.5 15q-70 0 -81 -77h-70q5 61 46 96t110 35q56 0 96.5 -27.5t40.5 -81.5q0 -29 -15.5 -53t-41.5 -37q32 -13 49.5 -40t17.5 -59q0 -60 -44.5 -92t-110.5 -32q-68 0 -108.5 39t-44.5 97h70q6 -36 26.5 -58.5
t57.5 -22.5q35 0 57 18t22 49zM161 0l500 725h101l-500 -725h-101zM923 94h-70v-94h-74v94h-201v58l202 256h73v-253h70v-61zM657 155h122v159z" />
    <glyph glyph-name="questiondown" unicode="&#xbf;" horiz-adv-x="499" 
d="M215 423v115h115v-115h-115zM13 -13q0 34 10.5 63t33.5 54.5t40 41t47 38.5q5 3 21 15t21 16t16 14.5t14.5 18.5t7.5 20.5t4 26.5v31h93v-34q0 -22 -6 -42t-12 -32.5t-22.5 -28.5t-24 -22.5t-30 -22.5t-28.5 -20q-29 -22 -44.5 -36t-30 -40.5t-14.5 -57.5q0 -46 37 -72.5
t97 -26.5q74 0 108.5 41.5t37.5 93.5h91q-1 -96 -69 -155.5t-173 -59.5q-93 0 -159 45t-66 131z" />
    <glyph glyph-name="Agrave" unicode="&#xc0;" horiz-adv-x="660" 
d="M137 886h129l110 -113h-91zM269 725h118l273 -725h-110l-57 157h-333l-56 -157h-104zM191 244h270l-136 378z" />
    <glyph glyph-name="Aacute" unicode="&#xc1;" horiz-adv-x="660" 
d="M375 773h-90l110 113h129zM269 725h118l273 -725h-110l-57 157h-333l-56 -157h-104zM191 244h270l-136 378z" />
    <glyph glyph-name="Acircumflex" unicode="&#xc2;" horiz-adv-x="660" 
d="M505 773h-107l-68 56l-68 -56h-107l135 113h83zM269 725h118l273 -725h-110l-57 157h-333l-56 -157h-104zM191 244h270l-136 378z" />
    <glyph glyph-name="Atilde" unicode="&#xc3;" horiz-adv-x="660" 
d="M443 885h71q-10 -59 -41.5 -86t-74.5 -27q-32 0 -74.5 23.5t-61.5 23.5q-40 0 -45 -44h-71q9 56 40 84t75 28q32 0 73 -23.5t62 -23.5q41 0 47 45zM269 725h118l273 -725h-110l-57 157h-333l-56 -157h-104zM191 244h270l-136 378z" />
    <glyph glyph-name="Adieresis" unicode="&#xc4;" horiz-adv-x="660" 
d="M261 879v-99h-91v99h91zM491 879v-99h-92v99h92zM269 725h118l273 -725h-110l-57 157h-333l-56 -157h-104zM191 244h270l-136 378z" />
    <glyph glyph-name="Aring" unicode="&#xc5;" horiz-adv-x="660" 
d="M421 850q0 -37 -26 -61t-65 -24q-38 0 -64 24.5t-26 60.5q0 37 26.5 61t63.5 24q38 0 64.5 -24t26.5 -61zM287 850q0 -18 13 -30t30 -12q18 0 30.5 12t12.5 30t-12.5 30.5t-30.5 12.5q-17 0 -30 -12.5t-13 -30.5zM269 725h118l273 -725h-110l-57 157h-333l-56 -157h-104z
M191 244h270l-136 378z" />
    <glyph glyph-name="AE" unicode="&#xc6;" horiz-adv-x="1050" 
d="M1020 725v-88h-389v-220h366v-88h-366v-241h389v-88h-492v155h-305l-111 -155h-112l528 725h492zM287 244h241v335z" />
    <glyph glyph-name="Ccedilla" unicode="&#xc7;" horiz-adv-x="726" 
d="M288 -136q30 -14 58 -14q61 0 61 32q0 30 -44 30q-25 0 -38 -9l-30 17l42 69q-135 15 -210.5 116.5t-75.5 258.5q0 169 92 271.5t245 102.5q114 0 196.5 -65t105.5 -179h-99q-17 71 -70.5 114.5t-137.5 43.5q-100 0 -164 -76t-64 -212q0 -135 64 -213t167 -78
q84 0 137.5 43t71.5 115h99q-23 -115 -105.5 -178.5t-199.5 -65.5l-22 -35q15 3 30 3q36 0 56 -18.5t20 -49.5q0 -37 -33 -59.5t-75 -22.5q-54 0 -93 19z" />
    <glyph glyph-name="Egrave" unicode="&#xc8;" horiz-adv-x="613" 
d="M159 886h129l110 -113h-91zM86 725h492v-88h-390v-220h367v-88h-367v-241h390v-88h-492v725z" />
    <glyph glyph-name="Eacute" unicode="&#xc9;" horiz-adv-x="613" 
d="M377 773h-90l110 113h129zM86 725h492v-88h-390v-220h367v-88h-367v-241h390v-88h-492v725z" />
    <glyph glyph-name="Ecircumflex" unicode="&#xca;" horiz-adv-x="613" 
d="M514 773h-107l-68 56l-68 -56h-107l135 113h83zM86 725h492v-88h-390v-220h367v-88h-367v-241h390v-88h-492v725z" />
    <glyph glyph-name="Edieresis" unicode="&#xcb;" horiz-adv-x="613" 
d="M263 879v-99h-91v99h91zM493 879v-99h-92v99h92zM86 725h492v-88h-390v-220h367v-88h-367v-241h390v-88h-492v725z" />
    <glyph glyph-name="Igrave" unicode="&#xcc;" horiz-adv-x="274" 
d="M-56 886h129l110 -113h-91zM188 0h-102v725h102v-725z" />
    <glyph glyph-name="Iacute" unicode="&#xcd;" horiz-adv-x="274" 
d="M182 773h-90l110 113h129zM188 0h-102v725h102v-725z" />
    <glyph glyph-name="Icircumflex" unicode="&#xce;" horiz-adv-x="274" 
d="M312 773h-107l-68 56l-68 -56h-107l135 113h83zM188 0h-102v725h102v-725z" />
    <glyph glyph-name="Idieresis" unicode="&#xcf;" horiz-adv-x="274" 
d="M68 879v-99h-91v99h91zM298 879v-99h-92v99h92zM188 0h-102v725h102v-725z" />
    <glyph glyph-name="Eth" unicode="&#xd0;" horiz-adv-x="729" 
d="M284 725q187 0 291 -83.5t104 -278.5q0 -101 -28.5 -173t-83 -113t-124 -59t-159.5 -18h-198v323h-64v90h64v312h198zM281 639h-93v-226h159v-90h-159v-237h93q51 0 89 5t79 21.5t66.5 46t42.5 81t17 123.5q0 71 -17 123t-43 81t-66.5 45.5t-78.5 21.5t-89 5z" />
    <glyph glyph-name="Ntilde" unicode="&#xd1;" horiz-adv-x="755" 
d="M510 885h71q-10 -59 -41.5 -86t-74.5 -27q-32 0 -74.5 23.5t-61.5 23.5q-40 0 -45 -44h-71q9 56 40 84t75 28q32 0 73 -23.5t62 -23.5q41 0 47 45zM520 0l-332 619v-619h-102v725h150l331 -617v617h102v-725h-149z" />
    <glyph glyph-name="Ograve" unicode="&#xd2;" horiz-adv-x="782" 
d="M198 886h129l110 -113h-91zM391 -13q-155 0 -247.5 105t-92.5 271t92.5 270.5t247.5 104.5t247.5 -104.5t92.5 -270.5t-92.5 -271t-247.5 -105zM391 73q103 0 169.5 77t66.5 213t-66.5 212.5t-169.5 76.5t-169.5 -76.5t-66.5 -212.5t66.5 -213t169.5 -77z" />
    <glyph glyph-name="Oacute" unicode="&#xd3;" horiz-adv-x="782" 
d="M436 773h-90l110 113h129zM391 -13q-155 0 -247.5 105t-92.5 271t92.5 270.5t247.5 104.5t247.5 -104.5t92.5 -270.5t-92.5 -271t-247.5 -105zM391 73q103 0 169.5 77t66.5 213t-66.5 212.5t-169.5 76.5t-169.5 -76.5t-66.5 -212.5t66.5 -213t169.5 -77z" />
    <glyph glyph-name="Ocircumflex" unicode="&#xd4;" horiz-adv-x="782" 
d="M566 773h-107l-68 56l-68 -56h-107l135 113h83zM391 -13q-155 0 -247.5 105t-92.5 271t92.5 270.5t247.5 104.5t247.5 -104.5t92.5 -270.5t-92.5 -271t-247.5 -105zM391 73q103 0 169.5 77t66.5 213t-66.5 212.5t-169.5 76.5t-169.5 -76.5t-66.5 -212.5t66.5 -213
t169.5 -77z" />
    <glyph glyph-name="Otilde" unicode="&#xd5;" horiz-adv-x="782" 
d="M504 885h71q-10 -59 -41.5 -86t-74.5 -27q-32 0 -74.5 23.5t-61.5 23.5q-40 0 -45 -44h-71q9 56 40 84t75 28q32 0 73 -23.5t62 -23.5q41 0 47 45zM391 -13q-155 0 -247.5 105t-92.5 271t92.5 270.5t247.5 104.5t247.5 -104.5t92.5 -270.5t-92.5 -271t-247.5 -105z
M391 73q103 0 169.5 77t66.5 213t-66.5 212.5t-169.5 76.5t-169.5 -76.5t-66.5 -212.5t66.5 -213t169.5 -77z" />
    <glyph glyph-name="Odieresis" unicode="&#xd6;" horiz-adv-x="782" 
d="M322 879v-99h-91v99h91zM552 879v-99h-92v99h92zM391 -13q-155 0 -247.5 105t-92.5 271t92.5 270.5t247.5 104.5t247.5 -104.5t92.5 -270.5t-92.5 -271t-247.5 -105zM391 73q103 0 169.5 77t66.5 213t-66.5 212.5t-169.5 76.5t-169.5 -76.5t-66.5 -212.5t66.5 -213
t169.5 -77z" />
    <glyph glyph-name="multiply" unicode="&#xd7;" horiz-adv-x="678" 
d="M510 30l-174 173l-167 -166l-65 64l168 167l-168 169l65 64l167 -167l168 166l65 -64l-168 -168l173 -173z" />
    <glyph glyph-name="Oslash" unicode="&#xd8;" horiz-adv-x="781" 
d="M391 -13q-133 0 -220 78l-67 -79l-40 36l69 81q-82 102 -82 260q0 166 92.5 270.5t247.5 104.5q129 0 219 -77l58 69l40 -35l-61 -72q84 -101 84 -260q0 -166 -92.5 -271t-247.5 -105zM199 181l349 408q-65 63 -157 63q-103 0 -169.5 -76.5t-66.5 -212.5q0 -110 44 -182z
M581 546l-348 -409q62 -64 158 -64q103 0 169.5 77t66.5 213q0 110 -46 183z" />
    <glyph glyph-name="Ugrave" unicode="&#xd9;" horiz-adv-x="731" 
d="M172 886h129l110 -113h-91zM177 725v-441q0 -108 43.5 -158.5t143.5 -50.5q101 0 145.5 54.5t44.5 165.5v430h102v-422q0 -162 -68.5 -239t-223.5 -77q-153 0 -221 70.5t-68 237.5v430h102z" />
    <glyph glyph-name="Uacute" unicode="&#xda;" horiz-adv-x="731" 
d="M400 773h-90l110 113h129zM177 725v-441q0 -108 43.5 -158.5t143.5 -50.5q101 0 145.5 54.5t44.5 165.5v430h102v-422q0 -162 -68.5 -239t-223.5 -77q-153 0 -221 70.5t-68 237.5v430h102z" />
    <glyph glyph-name="Ucircumflex" unicode="&#xdb;" horiz-adv-x="731" 
d="M540 773h-107l-68 56l-68 -56h-107l135 113h83zM177 725v-441q0 -108 43.5 -158.5t143.5 -50.5q101 0 145.5 54.5t44.5 165.5v430h102v-422q0 -162 -68.5 -239t-223.5 -77q-153 0 -221 70.5t-68 237.5v430h102z" />
    <glyph glyph-name="Udieresis" unicode="&#xdc;" horiz-adv-x="731" 
d="M296 879v-99h-91v99h91zM526 879v-99h-92v99h92zM177 725v-441q0 -108 43.5 -158.5t143.5 -50.5q101 0 145.5 54.5t44.5 165.5v430h102v-422q0 -162 -68.5 -239t-223.5 -77q-153 0 -221 70.5t-68 237.5v430h102z" />
    <glyph glyph-name="Yacute" unicode="&#xdd;" horiz-adv-x="624" 
d="M337 773h-90l110 113h129zM112 725l198 -354l202 354h112l-266 -444v-281h-102v283l-256 442h112z" />
    <glyph glyph-name="Thorn" unicode="&#xde;" horiz-adv-x="620" 
d="M297 599q145 0 223 -49.5t78 -175.5q0 -65 -21.5 -110t-63.5 -69.5t-94 -34.5t-122 -10h-109v-150h-102v725h102v-126h109zM188 509v-269h116q45 0 75.5 4.5t58.5 18t42 41t14 70.5t-14 71t-42 41.5t-58.5 18t-75.5 4.5h-116z" />
    <glyph glyph-name="germandbls" unicode="&#xdf;" horiz-adv-x="633" 
d="M72 0v491q0 122 55 177q64 69 201 69q99 0 162.5 -47t63.5 -125q0 -112 -109 -157q151 -39 151 -194q0 -61 -22 -106.5t-61 -71t-84.5 -37.5t-99.5 -12q-56 0 -109 11l20 86q45 -15 93 -15q72 0 118.5 34t46.5 110q0 145 -203 145h-3v83h2q80 0 124 29.5t44 83.5
q0 49 -37.5 78.5t-97.5 29.5q-97 0 -133 -49q-31 -38 -31 -122v-491h-91z" />
    <glyph glyph-name="agrave" unicode="&#xe0;" horiz-adv-x="559" 
d="M116 725h116l91 -116h-77zM40 142q0 46 24.5 79t76 54t112 33.5t151.5 22.5v13q0 69 -33.5 100t-88.5 31q-56 0 -88 -28.5t-35 -78.5h-94q6 83 69.5 132t146.5 49q111 0 163 -54t51 -168l-1 -124q-1 -125 14 -203h-92q-6 39 -7 74q-52 -87 -184 -87q-79 0 -132 41.5
t-53 113.5zM411 259q-67 -7 -112.5 -15t-83.5 -21t-56 -32.5t-18 -46.5q0 -39 28 -62t76 -23q72 0 119 39t47 127v34z" />
    <glyph glyph-name="aacute" unicode="&#xe1;" horiz-adv-x="559" 
d="M312 609h-76l90 116h117zM40 142q0 46 24.5 79t76 54t112 33.5t151.5 22.5v13q0 69 -33.5 100t-88.5 31q-56 0 -88 -28.5t-35 -78.5h-94q6 83 69.5 132t146.5 49q111 0 163 -54t51 -168l-1 -124q-1 -125 14 -203h-92q-6 39 -7 74q-52 -87 -184 -87q-79 0 -132 41.5
t-53 113.5zM411 259q-67 -7 -112.5 -15t-83.5 -21t-56 -32.5t-18 -46.5q0 -39 28 -62t76 -23q72 0 119 39t47 127v34z" />
    <glyph glyph-name="acircumflex" unicode="&#xe2;" horiz-adv-x="559" 
d="M459 609h-96l-79 54l-79 -54h-96l132 116h89zM40 142q0 46 24.5 79t76 54t112 33.5t151.5 22.5v13q0 69 -33.5 100t-88.5 31q-56 0 -88 -28.5t-35 -78.5h-94q6 83 69.5 132t146.5 49q111 0 163 -54t51 -168l-1 -124q-1 -125 14 -203h-92q-6 39 -7 74q-52 -87 -184 -87
q-79 0 -132 41.5t-53 113.5zM411 259q-67 -7 -112.5 -15t-83.5 -21t-56 -32.5t-18 -46.5q0 -39 28 -62t76 -23q72 0 119 39t47 127v34z" />
    <glyph glyph-name="atilde" unicode="&#xe3;" horiz-adv-x="559" 
d="M387 725h71q-10 -58 -41.5 -85.5t-74.5 -27.5q-32 0 -74.5 24t-61.5 24q-40 0 -45 -44h-71q9 56 40 84t75 28q32 0 73 -24t62 -24q41 0 47 45zM40 142q0 46 24.5 79t76 54t112 33.5t151.5 22.5v13q0 69 -33.5 100t-88.5 31q-56 0 -88 -28.5t-35 -78.5h-94q6 83 69.5 132
t146.5 49q111 0 163 -54t51 -168l-1 -124q-1 -125 14 -203h-92q-6 39 -7 74q-52 -87 -184 -87q-79 0 -132 41.5t-53 113.5zM411 259q-67 -7 -112.5 -15t-83.5 -21t-56 -32.5t-18 -46.5q0 -39 28 -62t76 -23q72 0 119 39t47 127v34z" />
    <glyph glyph-name="adieresis" unicode="&#xe4;" horiz-adv-x="559" 
d="M114 725h91v-99h-91v99zM435 725v-99h-92v99h92zM40 142q0 46 24.5 79t76 54t112 33.5t151.5 22.5v13q0 69 -33.5 100t-88.5 31q-56 0 -88 -28.5t-35 -78.5h-94q6 83 69.5 132t146.5 49q111 0 163 -54t51 -168l-1 -124q-1 -125 14 -203h-92q-6 39 -7 74q-52 -87 -184 -87
q-79 0 -132 41.5t-53 113.5zM411 259q-67 -7 -112.5 -15t-83.5 -21t-56 -32.5t-18 -46.5q0 -39 28 -62t76 -23q72 0 119 39t47 127v34z" />
    <glyph glyph-name="aring" unicode="&#xe5;" horiz-adv-x="559" 
d="M375 685q0 -37 -26 -61t-65 -24q-38 0 -64 24.5t-26 60.5q0 37 26.5 61t63.5 24q38 0 64.5 -24t26.5 -61zM241 685q0 -18 13 -30t30 -12q18 0 30.5 12t12.5 30t-12.5 30.5t-30.5 12.5q-17 0 -30 -12.5t-13 -30.5zM40 142q0 46 24.5 79t76 54t112 33.5t151.5 22.5v13
q0 69 -33.5 100t-88.5 31q-56 0 -88 -28.5t-35 -78.5h-94q6 83 69.5 132t146.5 49q111 0 163 -54t51 -168l-1 -124q-1 -125 14 -203h-92q-6 39 -7 74q-52 -87 -184 -87q-79 0 -132 41.5t-53 113.5zM411 259q-67 -7 -112.5 -15t-83.5 -21t-56 -32.5t-18 -46.5q0 -39 28 -62
t76 -23q72 0 119 39t47 127v34z" />
    <glyph glyph-name="ae" unicode="&#xe6;" horiz-adv-x="950" 
d="M40 142q0 46 24.5 79t76 54t112 33.5t151.5 22.5v13q0 69 -33.5 100t-88.5 31q-56 0 -88 -28.5t-35 -78.5h-94q6 83 69.5 132t146.5 49q143 0 189 -93q72 91 195 91q121 0 190.5 -89t60.5 -219h-414q3 -82 52 -127t114 -45q108 0 147 89h94q-20 -74 -83.5 -121.5
t-157.5 -47.5q-147 0 -215 112q-64 -112 -228 -112q-79 0 -132 41.5t-53 113.5zM503 317h317q-2 61 -44 106.5t-111 45.5q-66 0 -111 -37.5t-51 -114.5zM411 259q-67 -7 -112.5 -15t-83.5 -21t-56 -32.5t-18 -46.5q0 -39 28 -62t76 -23q72 0 119 39t47 127v34z" />
    <glyph glyph-name="ccedilla" unicode="&#xe7;" horiz-adv-x="557" 
d="M187 -136q30 -14 58 -14q61 0 61 32q0 30 -44 30q-25 0 -38 -9l-30 17l44 71q-94 16 -148.5 91.5t-54.5 185.5q0 122 71 200.5t189 78.5q92 0 153.5 -57.5t71.5 -131.5h-92q-10 48 -48.5 78.5t-90.5 30.5q-65 0 -110 -51t-45 -147q0 -97 45 -149.5t110 -52.5
q55 0 94 31.5t49 76.5h94q-14 -78 -80.5 -132.5t-157.5 -55.5l-22 -35q15 3 30 3q36 0 56 -18.5t20 -49.5q0 -37 -33 -59.5t-75 -22.5q-54 0 -93 19z" />
    <glyph glyph-name="egrave" unicode="&#xe8;" horiz-adv-x="581" 
d="M120 725h116l91 -116h-77zM133 239q3 -82 52 -127t114 -45q108 0 147 89h94q-20 -74 -83.5 -121.5t-157.5 -47.5q-124 0 -194 79t-70 202q0 125 74.5 202t186.5 77q121 0 190.5 -89t60.5 -219h-414zM134 317h317q-2 61 -44 106.5t-111 45.5q-66 0 -111 -37.5t-51 -114.5z
" />
    <glyph glyph-name="eacute" unicode="&#xe9;" horiz-adv-x="581" 
d="M326 609h-76l90 116h117zM133 239q3 -82 52 -127t114 -45q108 0 147 89h94q-20 -74 -83.5 -121.5t-157.5 -47.5q-124 0 -194 79t-70 202q0 125 74.5 202t186.5 77q121 0 190.5 -89t60.5 -219h-414zM134 317h317q-2 61 -44 106.5t-111 45.5q-66 0 -111 -37.5t-51 -114.5z
" />
    <glyph glyph-name="ecircumflex" unicode="&#xea;" horiz-adv-x="581" 
d="M463 609h-96l-79 54l-79 -54h-96l132 116h89zM133 239q3 -82 52 -127t114 -45q108 0 147 89h94q-20 -74 -83.5 -121.5t-157.5 -47.5q-124 0 -194 79t-70 202q0 125 74.5 202t186.5 77q121 0 190.5 -89t60.5 -219h-414zM134 317h317q-2 61 -44 106.5t-111 45.5
q-66 0 -111 -37.5t-51 -114.5z" />
    <glyph glyph-name="edieresis" unicode="&#xeb;" horiz-adv-x="581" 
d="M128 725h91v-99h-91v99zM449 725v-99h-92v99h92zM133 239q3 -82 52 -127t114 -45q108 0 147 89h94q-20 -74 -83.5 -121.5t-157.5 -47.5q-124 0 -194 79t-70 202q0 125 74.5 202t186.5 77q121 0 190.5 -89t60.5 -219h-414zM134 317h317q-2 61 -44 106.5t-111 45.5
q-66 0 -111 -37.5t-51 -114.5z" />
    <glyph glyph-name="igrave" unicode="&#xec;" horiz-adv-x="235" 
d="M-51 725h116l91 -116h-77zM163 538v-538h-91v538h91z" />
    <glyph glyph-name="iacute" unicode="&#xed;" horiz-adv-x="235" 
d="M155 609h-76l90 116h117zM163 538v-538h-91v538h91z" />
    <glyph glyph-name="icircumflex" unicode="&#xee;" horiz-adv-x="235" 
d="M292 609h-96l-79 54l-79 -54h-96l132 116h89zM163 538v-538h-91v538h91z" />
    <glyph glyph-name="idieresis" unicode="&#xef;" horiz-adv-x="235" 
d="M-43 725h91v-99h-91v99zM278 725v-99h-92v99h92zM163 538v-538h-91v538h91z" />
    <glyph glyph-name="eth" unicode="&#xf0;" horiz-adv-x="573" 
d="M391 748l46 -26l-76 -47q170 -138 170 -359q0 -161 -68 -245t-184 -84q-113 0 -178.5 75.5t-65.5 205.5q0 127 65 203t167 76q98 0 154 -79l1 1q-41 93 -137 160l-74 -45l-45 24l78 48q-37 21 -79 40l66 60q47 -22 90 -51zM432 268q0 98 -42.5 149.5t-109.5 51.5
q-71 0 -108.5 -54t-37.5 -147q0 -94 37.5 -148.5t108.5 -54.5q68 0 110 52t42 151z" />
    <glyph glyph-name="ntilde" unicode="&#xf1;" horiz-adv-x="578" 
d="M416 725h71q-10 -58 -41.5 -85.5t-74.5 -27.5q-32 0 -74.5 24t-61.5 24q-40 0 -45 -44h-71q9 56 40 84t75 28q32 0 73 -24t62 -24q41 0 47 45zM163 457q55 90 174 90q177 0 177 -207v-340h-91v313q0 74 -23.5 114.5t-94.5 40.5q-67 0 -104.5 -45.5t-37.5 -130.5v-292h-91
v538h91v-81z" />
    <glyph glyph-name="ograve" unicode="&#xf2;" horiz-adv-x="590" 
d="M124 725h116l91 -116h-77zM553 267q0 -136 -77 -208t-181 -72t-181 72t-77 208t77 208t181 72t181 -72t77 -208zM295 67q67 0 114 51.5t47 148.5q0 100 -46.5 150t-114.5 50q-69 0 -115 -48.5t-46 -151.5q0 -100 46.5 -150t114.5 -50z" />
    <glyph glyph-name="oacute" unicode="&#xf3;" horiz-adv-x="590" 
d="M330 609h-76l90 116h117zM553 267q0 -136 -77 -208t-181 -72t-181 72t-77 208t77 208t181 72t181 -72t77 -208zM295 67q67 0 114 51.5t47 148.5q0 100 -46.5 150t-114.5 50q-69 0 -115 -48.5t-46 -151.5q0 -100 46.5 -150t114.5 -50z" />
    <glyph glyph-name="ocircumflex" unicode="&#xf4;" horiz-adv-x="590" 
d="M467 609h-96l-79 54l-79 -54h-96l132 116h89zM553 267q0 -136 -77 -208t-181 -72t-181 72t-77 208t77 208t181 72t181 -72t77 -208zM295 67q67 0 114 51.5t47 148.5q0 100 -46.5 150t-114.5 50q-69 0 -115 -48.5t-46 -151.5q0 -100 46.5 -150t114.5 -50z" />
    <glyph glyph-name="otilde" unicode="&#xf5;" horiz-adv-x="590" 
d="M405 725h71q-10 -58 -41.5 -85.5t-74.5 -27.5q-32 0 -74.5 24t-61.5 24q-40 0 -45 -44h-71q9 56 40 84t75 28q32 0 73 -24t62 -24q41 0 47 45zM553 267q0 -136 -77 -208t-181 -72t-181 72t-77 208t77 208t181 72t181 -72t77 -208zM295 67q67 0 114 51.5t47 148.5
q0 100 -46.5 150t-114.5 50q-69 0 -115 -48.5t-46 -151.5q0 -100 46.5 -150t114.5 -50z" />
    <glyph glyph-name="odieresis" unicode="&#xf6;" horiz-adv-x="590" 
d="M132 725h91v-99h-91v99zM453 725v-99h-92v99h92zM553 267q0 -136 -77 -208t-181 -72t-181 72t-77 208t77 208t181 72t181 -72t77 -208zM295 67q67 0 114 51.5t47 148.5q0 100 -46.5 150t-114.5 50q-69 0 -115 -48.5t-46 -151.5q0 -100 46.5 -150t114.5 -50z" />
    <glyph glyph-name="divide" unicode="&#xf7;" horiz-adv-x="678" 
d="M284 495h115v-115h-115v115zM78 215v86h522v-86h-522zM284 147h115v-115h-115v115z" />
    <glyph glyph-name="oslash" unicode="&#xf8;" horiz-adv-x="590" 
d="M454 494l38 43l41 -35l-40 -46q60 -75 60 -189q0 -136 -77 -208t-181 -72q-93 0 -163 55l-48 -55l-39 36l50 57q-58 72 -58 187q0 136 77 208t181 72q91 0 159 -53zM157 152l241 276q-42 39 -103 39q-69 0 -115 -48.5t-46 -151.5q0 -67 23 -115zM431 385l-242 -278
q43 -40 106 -40q67 0 114 51.5t47 148.5q0 68 -25 118z" />
    <glyph glyph-name="ugrave" unicode="&#xf9;" horiz-adv-x="568" 
d="M135 725h116l91 -116h-77zM405 77q-55 -90 -169 -90q-172 0 -172 207v344h91v-317q0 -35 4 -60t15 -48t34.5 -35t59.5 -12q65 0 101 45.5t36 130.5v296h91v-538h-91v77z" />
    <glyph glyph-name="uacute" unicode="&#xfa;" horiz-adv-x="568" 
d="M321 609h-76l90 116h117zM405 77q-55 -90 -169 -90q-172 0 -172 207v344h91v-317q0 -35 4 -60t15 -48t34.5 -35t59.5 -12q65 0 101 45.5t36 130.5v296h91v-538h-91v77z" />
    <glyph glyph-name="ucircumflex" unicode="&#xfb;" horiz-adv-x="568" 
d="M458 609h-96l-79 54l-79 -54h-96l132 116h89zM405 77q-55 -90 -169 -90q-172 0 -172 207v344h91v-317q0 -35 4 -60t15 -48t34.5 -35t59.5 -12q65 0 101 45.5t36 130.5v296h91v-538h-91v77z" />
    <glyph glyph-name="udieresis" unicode="&#xfc;" horiz-adv-x="568" 
d="M123 725h91v-99h-91v99zM444 725v-99h-92v99h92zM405 77q-55 -90 -169 -90q-172 0 -172 207v344h91v-317q0 -35 4 -60t15 -48t34.5 -35t59.5 -12q65 0 101 45.5t36 130.5v296h91v-538h-91v77z" />
    <glyph glyph-name="yacute" unicode="&#xfd;" horiz-adv-x="466" 
d="M268 609h-76l90 116h117zM466 538l-192 -561q-30 -91 -65 -121.5t-122 -30.5h-47v76h37q51 0 73.5 15t39.5 73l4 11l-194 538h101l137 -415l133 415h95z" />
    <glyph glyph-name="thorn" unicode="&#xfe;" horiz-adv-x="601" 
d="M163 453q54 94 176 94q96 0 162 -76t66 -204q0 -129 -66 -204.5t-162 -75.5q-122 0 -176 94v-256h-91v900h91v-272zM316 65q71 0 112.5 53.5t41.5 148.5t-41.5 148.5t-112.5 53.5q-66 0 -111.5 -51t-45.5 -151t45.5 -151t111.5 -51z" />
    <glyph glyph-name="ydieresis" unicode="&#xff;" horiz-adv-x="466" 
d="M73 725h91v-99h-91v99zM394 725v-99h-92v99h92zM466 538l-192 -561q-30 -91 -65 -121.5t-122 -30.5h-47v76h37q51 0 73.5 15t39.5 73l4 11l-194 538h101l137 -415l133 415h95z" />
    <glyph glyph-name="Amacron" unicode="&#x100;" horiz-adv-x="660" 
d="M180 791v75h300v-75h-300zM269 725h118l273 -725h-110l-57 157h-333l-56 -157h-104zM191 244h270l-136 378z" />
    <glyph glyph-name="amacron" unicode="&#x101;" horiz-adv-x="559" 
d="M134 635v75h300v-75h-300zM40 142q0 46 24.5 79t76 54t112 33.5t151.5 22.5v13q0 69 -33.5 100t-88.5 31q-56 0 -88 -28.5t-35 -78.5h-94q6 83 69.5 132t146.5 49q111 0 163 -54t51 -168l-1 -124q-1 -125 14 -203h-92q-6 39 -7 74q-52 -87 -184 -87q-79 0 -132 41.5
t-53 113.5zM411 259q-67 -7 -112.5 -15t-83.5 -21t-56 -32.5t-18 -46.5q0 -39 28 -62t76 -23q72 0 119 39t47 127v34z" />
    <glyph glyph-name="Abreve" unicode="&#x102;" horiz-adv-x="660" 
d="M488 886q-6 -55 -46 -87t-113 -32q-71 0 -110 32t-46 87h77q9 -58 80 -58q70 0 81 58h77zM269 725h118l273 -725h-110l-57 157h-333l-56 -157h-104zM191 244h270l-136 378z" />
    <glyph glyph-name="abreve" unicode="&#x103;" horiz-adv-x="559" 
d="M283 604q-77 0 -114.5 34.5t-42.5 86.5h71q3 -26 24.5 -43.5t62.5 -17.5t63 17.5t25 43.5h71q-6 -52 -43.5 -86.5t-116.5 -34.5zM40 142q0 46 24.5 79t76 54t112 33.5t151.5 22.5v13q0 69 -33.5 100t-88.5 31q-56 0 -88 -28.5t-35 -78.5h-94q6 83 69.5 132t146.5 49
q111 0 163 -54t51 -168l-1 -124q-1 -125 14 -203h-92q-6 39 -7 74q-52 -87 -184 -87q-79 0 -132 41.5t-53 113.5zM411 259q-67 -7 -112.5 -15t-83.5 -21t-56 -32.5t-18 -46.5q0 -39 28 -62t76 -23q72 0 119 39t47 127v34z" />
    <glyph glyph-name="Aogonek" unicode="&#x104;" horiz-adv-x="660" 
d="M269 725h118l273 -725q-88 -44 -88 -80q0 -23 13.5 -34t33.5 -11q21 0 41 9v-61q-25 -11 -60 -11q-46 0 -78.5 23t-32.5 72q0 48 61 93l-57 157h-333l-56 -157h-104zM191 244h270l-136 378z" />
    <glyph glyph-name="aogonek" unicode="&#x105;" horiz-adv-x="559" 
d="M409 74q-52 -87 -184 -87q-79 0 -132 41.5t-53 113.5q0 46 24.5 79t76 54t112 33.5t151.5 22.5v13q0 69 -33.5 100t-88.5 31q-56 0 -88 -28.5t-35 -78.5h-94q6 83 69.5 132t146.5 49q111 0 163 -54t51 -168l-1 -124q-1 -125 14 -203q-97 -40 -97 -84q0 -40 55 -40
q20 0 42 6v-61q-25 -9 -64 -9q-48 0 -82 21t-34 70q0 59 88 97q-6 39 -7 74zM411 259q-67 -7 -112.5 -15t-83.5 -21t-56 -32.5t-18 -46.5q0 -39 28 -62t76 -23q72 0 119 39t47 127v34z" />
    <glyph glyph-name="Cacute" unicode="&#x106;" horiz-adv-x="726" 
d="M417 773h-90l110 113h129zM694 231q-23 -117 -108 -180.5t-206 -63.5q-153 0 -241 104t-88 273t92 271.5t245 102.5q114 0 196.5 -65t105.5 -179h-99q-17 71 -70.5 114.5t-137.5 43.5q-100 0 -164 -76t-64 -212q0 -135 64 -213t167 -78q84 0 137.5 43t71.5 115h99z" />
    <glyph glyph-name="cacute" unicode="&#x107;" horiz-adv-x="557" 
d="M315 609h-76l90 116h117zM520 358h-92q-10 48 -48.5 78.5t-90.5 30.5q-65 0 -110 -51t-45 -147q0 -97 45 -149.5t110 -52.5q55 0 94 31.5t49 76.5h94q-14 -78 -81.5 -133t-158.5 -55q-114 0 -182.5 78t-68.5 203q0 122 71 200.5t189 78.5q92 0 153.5 -57.5t71.5 -131.5z
" />
    <glyph glyph-name="Ccircumflex" unicode="&#x108;" horiz-adv-x="726" 
d="M562 773h-107l-68 56l-68 -56h-107l135 113h83zM694 231q-23 -117 -108 -180.5t-206 -63.5q-153 0 -241 104t-88 273t92 271.5t245 102.5q114 0 196.5 -65t105.5 -179h-99q-17 71 -70.5 114.5t-137.5 43.5q-100 0 -164 -76t-64 -212q0 -135 64 -213t167 -78
q84 0 137.5 43t71.5 115h99z" />
    <glyph glyph-name="ccircumflex" unicode="&#x109;" horiz-adv-x="557" 
d="M463 609h-96l-79 54l-79 -54h-96l132 116h89zM520 358h-92q-10 48 -48.5 78.5t-90.5 30.5q-65 0 -110 -51t-45 -147q0 -97 45 -149.5t110 -52.5q55 0 94 31.5t49 76.5h94q-14 -78 -81.5 -133t-158.5 -55q-114 0 -182.5 78t-68.5 203q0 122 71 200.5t189 78.5
q92 0 153.5 -57.5t71.5 -131.5z" />
    <glyph glyph-name="Cdotaccent" unicode="&#x10a;" horiz-adv-x="726" 
d="M434 880v-99h-91v99h91zM694 231q-23 -117 -108 -180.5t-206 -63.5q-153 0 -241 104t-88 273t92 271.5t245 102.5q114 0 196.5 -65t105.5 -179h-99q-17 71 -70.5 114.5t-137.5 43.5q-100 0 -164 -76t-64 -212q0 -135 64 -213t167 -78q84 0 137.5 43t71.5 115h99z" />
    <glyph glyph-name="cdotaccent" unicode="&#x10b;" horiz-adv-x="557" 
d="M333 725v-99h-91v99h91zM520 358h-92q-10 48 -48.5 78.5t-90.5 30.5q-65 0 -110 -51t-45 -147q0 -97 45 -149.5t110 -52.5q55 0 94 31.5t49 76.5h94q-14 -78 -81.5 -133t-158.5 -55q-114 0 -182.5 78t-68.5 203q0 122 71 200.5t189 78.5q92 0 153.5 -57.5t71.5 -131.5z
" />
    <glyph glyph-name="Ccaron" unicode="&#x10c;" horiz-adv-x="726" 
d="M213 886h107l67 -56l69 56h107l-135 -113h-84zM694 231q-23 -117 -108 -180.5t-206 -63.5q-153 0 -241 104t-88 273t92 271.5t245 102.5q114 0 196.5 -65t105.5 -179h-99q-17 71 -70.5 114.5t-137.5 43.5q-100 0 -164 -76t-64 -212q0 -135 64 -213t167 -78q84 0 137.5 43
t71.5 115h99z" />
    <glyph glyph-name="ccaron" unicode="&#x10d;" horiz-adv-x="557" 
d="M113 725h96l78 -54l80 54h96l-133 -116h-88zM520 358h-92q-10 48 -48.5 78.5t-90.5 30.5q-65 0 -110 -51t-45 -147q0 -97 45 -149.5t110 -52.5q55 0 94 31.5t49 76.5h94q-14 -78 -81.5 -133t-158.5 -55q-114 0 -182.5 78t-68.5 203q0 122 71 200.5t189 78.5
q92 0 153.5 -57.5t71.5 -131.5z" />
    <glyph glyph-name="Dcaron" unicode="&#x10e;" horiz-adv-x="730" 
d="M187 886h107l67 -56l69 56h107l-135 -113h-84zM284 725q187 0 291 -83.5t104 -278.5q0 -101 -28.5 -173t-83 -113t-124 -59t-159.5 -18h-198v725h198zM281 639h-93v-553h93q51 0 89 5t79 21.5t66.5 46t42.5 81t17 123.5q0 71 -17 123t-43 81t-66.5 45.5t-78.5 21.5t-89 5
z" />
    <glyph glyph-name="dcaron" unicode="&#x10f;" horiz-adv-x="678" 
d="M441 725h91v-725h-91v81q-54 -94 -176 -94q-97 0 -163.5 75.5t-66.5 204.5q0 128 67 204t163 76q122 0 176 -94v272zM628 555h-58l30 170h98zM288 469q-71 0 -112.5 -53.5t-41.5 -148.5t41.5 -148.5t112.5 -53.5q66 0 111.5 51t45.5 151t-45.5 151t-111.5 51z" />
    <glyph glyph-name="Dcroat" unicode="&#x110;" horiz-adv-x="729" 
d="M284 725q187 0 291 -83.5t104 -278.5q0 -101 -28.5 -173t-83 -113t-124 -59t-159.5 -18h-198v323h-64v90h64v312h198zM281 639h-93v-226h159v-90h-159v-237h93q51 0 89 5t79 21.5t66.5 46t42.5 81t17 123.5q0 71 -17 123t-43 81t-66.5 45.5t-78.5 21.5t-89 5z" />
    <glyph glyph-name="dcroat" unicode="&#x111;" horiz-adv-x="604" 
d="M441 578h-126v75h126v72h91v-72h71v-75h-71v-578h-91v81q-54 -94 -176 -94q-97 0 -163.5 75.5t-66.5 204.5q0 128 67 204t163 76q122 0 176 -94v125zM288 469q-71 0 -112.5 -53.5t-41.5 -148.5t41.5 -148.5t112.5 -53.5q66 0 111.5 51t45.5 151t-45.5 151t-111.5 51z" />
    <glyph glyph-name="Emacron" unicode="&#x112;" horiz-adv-x="613" 
d="M185 791v75h300v-75h-300zM86 725h492v-88h-390v-220h367v-88h-367v-241h390v-88h-492v725z" />
    <glyph glyph-name="emacron" unicode="&#x113;" horiz-adv-x="581" 
d="M138 635v75h300v-75h-300zM133 239q3 -82 52 -127t114 -45q108 0 147 89h94q-20 -74 -83.5 -121.5t-157.5 -47.5q-124 0 -194 79t-70 202q0 125 74.5 202t186.5 77q121 0 190.5 -89t60.5 -219h-414zM134 317h317q-2 61 -44 106.5t-111 45.5q-66 0 -111 -37.5t-51 -114.5z
" />
    <glyph glyph-name="Ebreve" unicode="&#x114;" horiz-adv-x="613" 
d="M490 886q-6 -55 -46 -87t-113 -32q-71 0 -110 32t-46 87h77q9 -58 80 -58q70 0 81 58h77zM86 725h492v-88h-390v-220h367v-88h-367v-241h390v-88h-492v725z" />
    <glyph glyph-name="ebreve" unicode="&#x115;" horiz-adv-x="581" 
d="M287 604q-77 0 -114.5 34.5t-42.5 86.5h71q3 -26 24.5 -43.5t62.5 -17.5t63 17.5t25 43.5h71q-6 -52 -43.5 -86.5t-116.5 -34.5zM133 239q3 -82 52 -127t114 -45q108 0 147 89h94q-20 -74 -83.5 -121.5t-157.5 -47.5q-124 0 -194 79t-70 202q0 125 74.5 202t186.5 77
q121 0 190.5 -89t60.5 -219h-414zM134 317h317q-2 61 -44 106.5t-111 45.5q-66 0 -111 -37.5t-51 -114.5z" />
    <glyph glyph-name="Edotaccent" unicode="&#x116;" horiz-adv-x="613" 
d="M378 880v-99h-91v99h91zM86 725h492v-88h-390v-220h367v-88h-367v-241h390v-88h-492v725z" />
    <glyph glyph-name="edotaccent" unicode="&#x117;" horiz-adv-x="581" 
d="M334 725v-99h-91v99h91zM133 239q3 -82 52 -127t114 -45q108 0 147 89h94q-20 -74 -83.5 -121.5t-157.5 -47.5q-124 0 -194 79t-70 202q0 125 74.5 202t186.5 77q121 0 190.5 -89t60.5 -219h-414zM134 317h317q-2 61 -44 106.5t-111 45.5q-66 0 -111 -37.5t-51 -114.5z
" />
    <glyph glyph-name="Eogonek" unicode="&#x118;" horiz-adv-x="613" 
d="M86 725h492v-88h-390v-220h367v-88h-367v-241h390v-88q-88 -44 -88 -80q0 -23 13.5 -34t33.5 -11q21 0 41 9v-61q-25 -11 -60 -11q-46 0 -78.5 23t-32.5 72q0 55 69 93h-390v725z" />
    <glyph glyph-name="eogonek" unicode="&#x119;" horiz-adv-x="581" 
d="M299 -13q-124 0 -194 79t-70 202q0 125 74.5 202t186.5 77q121 0 190.5 -89t60.5 -219h-414q3 -82 52 -127t114 -45q108 0 147 89h94q-25 -94 -115 -141l2 1q-32 -19 -56 -47.5t-24 -47.5q0 -45 55 -45q20 0 42 6v-61q-25 -9 -64 -9q-48 0 -82 22t-34 74q0 37 36 79h-1z
M134 317h317q-2 61 -44 106.5t-111 45.5q-66 0 -111 -37.5t-51 -114.5z" />
    <glyph glyph-name="Ecaron" unicode="&#x11a;" horiz-adv-x="613" 
d="M167 886h107l67 -56l69 56h107l-135 -113h-84zM86 725h492v-88h-390v-220h367v-88h-367v-241h390v-88h-492v725z" />
    <glyph glyph-name="ecaron" unicode="&#x11b;" horiz-adv-x="581" 
d="M113 725h96l78 -54l80 54h96l-133 -116h-88zM133 239q3 -82 52 -127t114 -45q108 0 147 89h94q-20 -74 -83.5 -121.5t-157.5 -47.5q-124 0 -194 79t-70 202q0 125 74.5 202t186.5 77q121 0 190.5 -89t60.5 -219h-414zM134 317h317q-2 61 -44 106.5t-111 45.5
q-66 0 -111 -37.5t-51 -114.5z" />
    <glyph glyph-name="Gcircumflex" unicode="&#x11c;" horiz-adv-x="770" 
d="M562 773h-107l-68 56l-68 -56h-107l135 113h83zM688 514h-99q-19 64 -70.5 101t-135.5 37q-100 0 -164 -76t-64 -212q0 -135 63 -213t165 -78q40 0 75 9t67.5 29.5t52 59t19.5 92.5v19h-192v88h288v-370h-80l-5 91q-66 -104 -229 -104q-154 0 -241 104t-87 273t92 271.5
t245 102.5q114 0 196 -60t104 -164z" />
    <glyph glyph-name="gcircumflex" unicode="&#x11d;" horiz-adv-x="597" 
d="M463 609h-96l-79 54l-79 -54h-96l132 116h89zM434 538h91v-466q0 -77 -12.5 -119t-38.5 -70q-62 -71 -186 -71q-93 0 -150.5 42t-70.5 123h97q21 -85 125 -85q73 0 110 40q35 37 35 119v51q-54 -93 -171 -93q-94 0 -161 72.5t-67 196.5t67 196.5t161 72.5q117 0 171 -94
v85zM286 469q-68 0 -110 -50.5t-42 -140.5t42 -141t110 -51q66 0 109 47.5t43 144.5q0 96 -43 143.5t-109 47.5z" />
    <glyph glyph-name="Gbreve" unicode="&#x11e;" horiz-adv-x="770" 
d="M543 886q-6 -55 -46 -87t-113 -32q-71 0 -110 32t-46 87h77q9 -58 80 -58q70 0 81 58h77zM688 514h-99q-19 64 -70.5 101t-135.5 37q-100 0 -164 -76t-64 -212q0 -135 63 -213t165 -78q40 0 75 9t67.5 29.5t52 59t19.5 92.5v19h-192v88h288v-370h-80l-5 91
q-66 -104 -229 -104q-154 0 -241 104t-87 273t92 271.5t245 102.5q114 0 196 -60t104 -164z" />
    <glyph glyph-name="gbreve" unicode="&#x11f;" horiz-adv-x="597" 
d="M281 604q-77 0 -114.5 34.5t-42.5 86.5h71q3 -26 24.5 -43.5t62.5 -17.5t63 17.5t25 43.5h71q-6 -52 -43.5 -86.5t-116.5 -34.5zM434 538h91v-466q0 -77 -12.5 -119t-38.5 -70q-62 -71 -186 -71q-93 0 -150.5 42t-70.5 123h97q21 -85 125 -85q73 0 110 40q35 37 35 119
v51q-54 -93 -171 -93q-94 0 -161 72.5t-67 196.5t67 196.5t161 72.5q117 0 171 -94v85zM286 469q-68 0 -110 -50.5t-42 -140.5t42 -141t110 -51q66 0 109 47.5t43 144.5q0 96 -43 143.5t-109 47.5z" />
    <glyph glyph-name="Gdotaccent" unicode="&#x120;" horiz-adv-x="770" 
d="M433 880v-99h-91v99h91zM688 514h-99q-19 64 -70.5 101t-135.5 37q-100 0 -164 -76t-64 -212q0 -135 63 -213t165 -78q40 0 75 9t67.5 29.5t52 59t19.5 92.5v19h-192v88h288v-370h-80l-5 91q-66 -104 -229 -104q-154 0 -241 104t-87 273t92 271.5t245 102.5
q114 0 196 -60t104 -164z" />
    <glyph glyph-name="gdotaccent" unicode="&#x121;" horiz-adv-x="597" 
d="M338 725v-99h-91v99h91zM434 538h91v-466q0 -77 -12.5 -119t-38.5 -70q-62 -71 -186 -71q-93 0 -150.5 42t-70.5 123h97q21 -85 125 -85q73 0 110 40q35 37 35 119v51q-54 -93 -171 -93q-94 0 -161 72.5t-67 196.5t67 196.5t161 72.5q117 0 171 -94v85zM286 469
q-68 0 -110 -50.5t-42 -140.5t42 -141t110 -51q66 0 109 47.5t43 144.5q0 96 -43 143.5t-109 47.5z" />
    <glyph glyph-name="Gcommaaccent" unicode="&#x122;" horiz-adv-x="770" 
d="M688 514h-99q-19 64 -70.5 101t-135.5 37q-100 0 -164 -76t-64 -212q0 -135 63 -213t165 -78q40 0 75 9t67.5 29.5t52 59t19.5 92.5v19h-192v88h288v-370h-80l-5 91q-66 -104 -229 -104q-154 0 -241 104t-87 273t92 271.5t245 102.5q114 0 196 -60t104 -164zM326 -36h95
v-95l-44 -90h-54l39 96h-36v89z" />
    <glyph glyph-name="gcommaaccent" unicode="&#x123;" horiz-adv-x="597" 
d="M332 600h-95v96l44 89h54l-39 -95h36v-90zM434 538h91v-466q0 -77 -12.5 -119t-38.5 -70q-62 -71 -186 -71q-93 0 -150.5 42t-70.5 123h97q21 -85 125 -85q73 0 110 40q35 37 35 119v51q-54 -93 -171 -93q-94 0 -161 72.5t-67 196.5t67 196.5t161 72.5q117 0 171 -94v85z
M286 469q-68 0 -110 -50.5t-42 -140.5t42 -141t110 -51q66 0 109 47.5t43 144.5q0 96 -43 143.5t-109 47.5z" />
    <glyph glyph-name="Hcircumflex" unicode="&#x124;" horiz-adv-x="757" 
d="M553 773h-107l-68 56l-68 -56h-107l135 113h83zM671 725v-725h-102v329h-381v-329h-102v725h102v-308h381v308h102z" />
    <glyph glyph-name="hcircumflex" unicode="&#x125;" horiz-adv-x="578" 
d="M292 773h-107l-68 56l-68 -56h-107l135 113h83zM163 457q55 90 174 90q177 0 177 -207v-340h-91v313q0 74 -23.5 114.5t-94.5 40.5q-67 0 -104.5 -45.5t-37.5 -130.5v-292h-91v725h91v-268z" />
    <glyph glyph-name="Hbar" unicode="&#x126;" horiz-adv-x="758" 
d="M671 725v-128h67v-80h-67v-517h-102v329h-381v-329h-102v517h-66v80h66v128h102v-128h381v128h102zM569 417v100h-381v-100h381z" />
    <glyph glyph-name="hbar" unicode="&#x127;" horiz-adv-x="578" 
d="M163 653h125v-75h-125v-121q55 90 174 90q177 0 177 -207v-340h-91v313q0 74 -23.5 114.5t-94.5 40.5q-67 0 -104.5 -45.5t-37.5 -130.5v-292h-91v578h-84v75h84v72h91v-72z" />
    <glyph glyph-name="Itilde" unicode="&#x128;" horiz-adv-x="274" 
d="M250 885h71q-10 -59 -41.5 -86t-74.5 -27q-32 0 -74.5 23.5t-61.5 23.5q-40 0 -45 -44h-71q9 56 40 84t75 28q32 0 73 -23.5t62 -23.5q41 0 47 45zM188 0h-102v725h102v-725z" />
    <glyph glyph-name="itilde" unicode="&#x129;" horiz-adv-x="235" 
d="M230 725h71q-10 -58 -41.5 -85.5t-74.5 -27.5q-32 0 -74.5 24t-61.5 24q-40 0 -45 -44h-71q9 56 40 84t75 28q32 0 73 -24t62 -24q41 0 47 45zM163 538v-538h-91v538h91z" />
    <glyph glyph-name="Imacron" unicode="&#x12a;" horiz-adv-x="274" 
d="M-13 791v75h300v-75h-300zM188 0h-102v725h102v-725z" />
    <glyph glyph-name="imacron" unicode="&#x12b;" horiz-adv-x="235" 
d="M-33 635v75h300v-75h-300zM163 538v-538h-91v538h91z" />
    <glyph glyph-name="Ibreve" unicode="&#x12c;" horiz-adv-x="274" 
d="M295 886q-6 -55 -46 -87t-113 -32q-71 0 -110 32t-46 87h77q9 -58 80 -58q70 0 81 58h77zM188 0h-102v725h102v-725z" />
    <glyph glyph-name="ibreve" unicode="&#x12d;" horiz-adv-x="235" 
d="M116 604q-77 0 -114.5 34.5t-42.5 86.5h71q3 -26 24.5 -43.5t62.5 -17.5t63 17.5t25 43.5h71q-6 -52 -43.5 -86.5t-116.5 -34.5zM163 538v-538h-91v538h91z" />
    <glyph glyph-name="Iogonek" unicode="&#x12e;" horiz-adv-x="274" 
d="M86 725h102v-725q-88 -44 -88 -80q0 -23 13.5 -34t33.5 -11q21 0 41 9v-61q-25 -11 -60 -11q-46 0 -78.5 23t-32.5 72q0 55 69 93v725z" />
    <glyph glyph-name="iogonek" unicode="&#x12f;" horiz-adv-x="235" 
d="M163 725v-110h-91v110h91zM72 538h91v-538q-98 -41 -98 -85q0 -39 55 -39q20 0 42 6v-61q-25 -9 -64 -9q-48 0 -82 21t-34 69q0 60 90 98v538z" />
    <glyph glyph-name="Idotaccent" unicode="&#x130;" horiz-adv-x="274" 
d="M183 880v-99h-91v99h91zM188 0h-102v725h102v-725z" />
    <glyph glyph-name="dotlessi" unicode="&#x131;" horiz-adv-x="235" 
d="M163 538v-538h-91v538h91z" />
    <glyph glyph-name="Jcircumflex" unicode="&#x134;" horiz-adv-x="552" 
d="M590 773h-107l-68 56l-68 -56h-107l135 113h83zM364 725h102v-495q0 -117 -60 -180t-168 -63t-167.5 60.5t-59.5 176.5h95q0 -73 37.5 -113.5t94.5 -40.5q53 0 89.5 36t36.5 125v494z" />
    <glyph glyph-name="jcircumflex" unicode="&#x135;" horiz-adv-x="235" 
d="M292 609h-96l-79 54l-79 -54h-96l132 116h89zM72 538h91v-565q0 -86 -25.5 -117t-101.5 -31h-46v76h26q35 0 45.5 13.5t10.5 56.5v567z" />
    <glyph glyph-name="Kcommaaccent" unicode="&#x136;" horiz-adv-x="666" 
d="M188 360l327 365h127l-271 -296l302 -429h-122l-249 354l-114 -126v-228h-102v725h102v-365zM313 -36h95v-95l-44 -90h-54l39 96h-36v89z" />
    <glyph glyph-name="kcommaaccent" unicode="&#x137;" horiz-adv-x="505" 
d="M163 725v-429l217 242h112l-205 -223l233 -315h-111l-183 248l-63 -68v-180h-91v725h91zM234 -36h95v-95l-44 -90h-54l39 96h-36v89z" />
    <glyph glyph-name="Lacute" unicode="&#x139;" horiz-adv-x="571" 
d="M178 773h-90l110 113h129zM188 88h383v-88h-485v725h102v-637z" />
    <glyph glyph-name="lacute" unicode="&#x13a;" horiz-adv-x="235" 
d="M162 773h-90l110 113h129zM163 0h-91v725h91v-725z" />
    <glyph glyph-name="Lcommaaccent" unicode="&#x13b;" horiz-adv-x="571" 
d="M188 88h383v-88h-485v725h102v-637zM282 -36h95v-95l-44 -90h-54l39 96h-36v89z" />
    <glyph glyph-name="lcommaaccent" unicode="&#x13c;" horiz-adv-x="235" 
d="M163 0h-91v725h91v-725zM71 -36h95v-95l-44 -90h-54l39 96h-36v89z" />
    <glyph glyph-name="Lcaron" unicode="&#x13d;" horiz-adv-x="571" 
d="M188 88h383v-88h-485v725h102v-637zM338 555h-58l30 170h98z" />
    <glyph glyph-name="lcaron" unicode="&#x13e;" horiz-adv-x="312" 
d="M163 0h-91v725h91v-725zM262 555h-58l30 170h98z" />
    <glyph glyph-name="Ldot" unicode="&#x13f;" horiz-adv-x="571" 
d="M188 88h383v-88h-485v725h102v-637zM468 466v-99h-91v99h91z" />
    <glyph glyph-name="ldot" unicode="&#x140;" horiz-adv-x="326" 
d="M163 0h-91v725h91v-725zM326 458v-99h-91v99h91z" />
    <glyph glyph-name="Lslash" unicode="&#x141;" horiz-adv-x="571" 
d="M188 413l189 129v-91l-189 -129v-234h383v-88h-485v252l-86 -59v91l86 59v382h102v-312z" />
    <glyph glyph-name="lslash" unicode="&#x142;" horiz-adv-x="276" 
d="M183 455l73 50v-77l-73 -50v-378h-91v316l-72 -49v76l72 49v333h91v-270z" />
    <glyph glyph-name="Nacute" unicode="&#x143;" horiz-adv-x="755" 
d="M422 773h-90l110 113h129zM520 0l-332 619v-619h-102v725h150l331 -617v617h102v-725h-149z" />
    <glyph glyph-name="nacute" unicode="&#x144;" horiz-adv-x="578" 
d="M331 609h-76l90 116h117zM163 457q55 90 174 90q177 0 177 -207v-340h-91v313q0 74 -23.5 114.5t-94.5 40.5q-67 0 -104.5 -45.5t-37.5 -130.5v-292h-91v538h91v-81z" />
    <glyph glyph-name="Ncommaaccent" unicode="&#x145;" horiz-adv-x="755" 
d="M520 0l-332 619v-619h-102v725h150l331 -617v617h102v-725h-149zM331 -36h95v-95l-44 -90h-54l39 96h-36v89z" />
    <glyph glyph-name="ncommaaccent" unicode="&#x146;" horiz-adv-x="578" 
d="M163 457q55 90 174 90q177 0 177 -207v-340h-91v313q0 74 -23.5 114.5t-94.5 40.5q-67 0 -104.5 -45.5t-37.5 -130.5v-292h-91v538h91v-81zM243 -36h95v-95l-44 -90h-54l39 96h-36v89z" />
    <glyph glyph-name="Ncaron" unicode="&#x147;" horiz-adv-x="755" 
d="M225 886h107l67 -56l69 56h107l-135 -113h-84zM520 0l-332 619v-619h-102v725h150l331 -617v617h102v-725h-149z" />
    <glyph glyph-name="ncaron" unicode="&#x148;" horiz-adv-x="578" 
d="M128 725h96l78 -54l80 54h96l-133 -116h-88zM163 457q55 90 174 90q177 0 177 -207v-340h-91v313q0 74 -23.5 114.5t-94.5 40.5q-67 0 -104.5 -45.5t-37.5 -130.5v-292h-91v538h91v-81z" />
    <glyph glyph-name="Eng" unicode="&#x14a;" horiz-adv-x="755" 
d="M188 617v-617h-102v725h153l328 -541v541h102v-740q0 -102 -37 -136.5t-130 -34.5h-42v91h22q56 0 70.5 15.5t14.5 73.5v9z" />
    <glyph glyph-name="eng" unicode="&#x14b;" horiz-adv-x="578" 
d="M423 313q0 74 -23.5 114t-94.5 40q-67 0 -104.5 -45t-37.5 -130v-292h-91v538h91v-81q55 90 174 90q177 0 177 -207v-377q0 -84 -24.5 -111t-102.5 -27h-46v77h26q35 0 45.5 13.5t10.5 56.5v341z" />
    <glyph glyph-name="Omacron" unicode="&#x14c;" horiz-adv-x="782" 
d="M241 791v75h300v-75h-300zM391 -13q-155 0 -247.5 105t-92.5 271t92.5 270.5t247.5 104.5t247.5 -104.5t92.5 -270.5t-92.5 -271t-247.5 -105zM391 73q103 0 169.5 77t66.5 213t-66.5 212.5t-169.5 76.5t-169.5 -76.5t-66.5 -212.5t66.5 -213t169.5 -77z" />
    <glyph glyph-name="omacron" unicode="&#x14d;" horiz-adv-x="590" 
d="M142 635v75h300v-75h-300zM553 267q0 -136 -77 -208t-181 -72t-181 72t-77 208t77 208t181 72t181 -72t77 -208zM295 67q67 0 114 51.5t47 148.5q0 100 -46.5 150t-114.5 50q-69 0 -115 -48.5t-46 -151.5q0 -100 46.5 -150t114.5 -50z" />
    <glyph glyph-name="Obreve" unicode="&#x14e;" horiz-adv-x="782" 
d="M549 886q-6 -55 -46 -87t-113 -32q-71 0 -110 32t-46 87h77q9 -58 80 -58q70 0 81 58h77zM391 -13q-155 0 -247.5 105t-92.5 271t92.5 270.5t247.5 104.5t247.5 -104.5t92.5 -270.5t-92.5 -271t-247.5 -105zM391 73q103 0 169.5 77t66.5 213t-66.5 212.5t-169.5 76.5
t-169.5 -76.5t-66.5 -212.5t66.5 -213t169.5 -77z" />
    <glyph glyph-name="obreve" unicode="&#x14f;" horiz-adv-x="590" 
d="M291 604q-77 0 -114.5 34.5t-42.5 86.5h71q3 -26 24.5 -43.5t62.5 -17.5t63 17.5t25 43.5h71q-6 -52 -43.5 -86.5t-116.5 -34.5zM553 267q0 -136 -77 -208t-181 -72t-181 72t-77 208t77 208t181 72t181 -72t77 -208zM295 67q67 0 114 51.5t47 148.5q0 100 -46.5 150
t-114.5 50q-69 0 -115 -48.5t-46 -151.5q0 -100 46.5 -150t114.5 -50z" />
    <glyph glyph-name="Ohungarumlaut" unicode="&#x150;" horiz-adv-x="782" 
d="M353 773h-90l110 113h129zM520 773h-90l110 113h129zM391 -13q-155 0 -247.5 105t-92.5 271t92.5 270.5t247.5 104.5t247.5 -104.5t92.5 -270.5t-92.5 -271t-247.5 -105zM391 73q103 0 169.5 77t66.5 213t-66.5 212.5t-169.5 76.5t-169.5 -76.5t-66.5 -212.5t66.5 -213
t169.5 -77z" />
    <glyph glyph-name="ohungarumlaut" unicode="&#x151;" horiz-adv-x="590" 
d="M251 609h-76l90 116h117zM410 609h-77l91 116h116zM553 267q0 -136 -77 -208t-181 -72t-181 72t-77 208t77 208t181 72t181 -72t77 -208zM295 67q67 0 114 51.5t47 148.5q0 100 -46.5 150t-114.5 50q-69 0 -115 -48.5t-46 -151.5q0 -100 46.5 -150t114.5 -50z" />
    <glyph glyph-name="OE" unicode="&#x152;" horiz-adv-x="1134" 
d="M629 99q-82 -112 -239 -112q-154 0 -246.5 105t-92.5 271q0 164 95.5 269.5t245.5 105.5q154 0 237 -111v98h470v-88h-389v-220h366v-88h-366v-241h389v-88h-470v99zM391 652q-103 0 -169.5 -77t-66.5 -212q0 -136 66.5 -213t169.5 -77t169.5 77t66.5 213
q0 135 -66.5 212t-169.5 77z" />
    <glyph glyph-name="oe" unicode="&#x153;" horiz-adv-x="993" 
d="M711 -13q-147 0 -212 112q-32 -56 -86.5 -84t-117.5 -28q-104 0 -181 72t-77 208t77 208t181 72q63 0 117.5 -29t87.5 -85q32 54 86 84t122 30q121 0 190.5 -89t60.5 -219h-414q4 -82 52.5 -127t113.5 -45q108 0 147 89h94q-20 -74 -83.5 -121.5t-157.5 -47.5zM546 317
h317q-2 61 -44 106.5t-111 45.5q-65 0 -110.5 -38t-51.5 -114zM456 267q0 100 -46.5 150t-114.5 50q-69 0 -115 -48.5t-46 -151.5q0 -100 46.5 -150t114.5 -50q67 0 114 51.5t47 148.5z" />
    <glyph glyph-name="Racute" unicode="&#x154;" horiz-adv-x="679" 
d="M369 773h-90l110 113h129zM371 306q-18 -1 -55 -1h-128v-305h-102v725h230q72 0 123 -8.5t93.5 -30.5t64 -64.5t21.5 -105.5q0 -155 -144 -194l168 -322h-114zM188 639v-248h136q36 0 60.5 2t51 9t42 20t25.5 36t10 56t-10 56t-25.5 36.5t-41.5 21t-51 9.5t-61 2h-136z
" />
    <glyph glyph-name="racute" unicode="&#x155;" horiz-adv-x="355" 
d="M244 609h-76l90 116h117zM340 443q-38 4 -51 4q-64 0 -95 -39t-31 -126v-282h-91v538h89v-94q42 94 152 97q17 0 27 -1v-97z" />
    <glyph glyph-name="Rcommaaccent" unicode="&#x156;" horiz-adv-x="679" 
d="M371 306q-18 -1 -55 -1h-128v-305h-102v725h230q72 0 123 -8.5t93.5 -30.5t64 -64.5t21.5 -105.5q0 -155 -144 -194l168 -322h-114zM188 639v-248h136q36 0 60.5 2t51 9t42 20t25.5 36t10 56t-10 56t-25.5 36.5t-41.5 21t-51 9.5t-61 2h-136zM298 -36h95v-95l-44 -90h-54
l39 96h-36v89z" />
    <glyph glyph-name="rcommaaccent" unicode="&#x157;" horiz-adv-x="355" 
d="M340 443q-38 4 -51 4q-64 0 -95 -39t-31 -126v-282h-91v538h89v-94q42 94 152 97q17 0 27 -1v-97zM71 -36h95v-95l-44 -90h-54l39 96h-36v89z" />
    <glyph glyph-name="Rcaron" unicode="&#x158;" horiz-adv-x="679" 
d="M169 886h107l67 -56l69 56h107l-135 -113h-84zM371 306q-18 -1 -55 -1h-128v-305h-102v725h230q72 0 123 -8.5t93.5 -30.5t64 -64.5t21.5 -105.5q0 -155 -144 -194l168 -322h-114zM188 639v-248h136q36 0 60.5 2t51 9t42 20t25.5 36t10 56t-10 56t-25.5 36.5t-41.5 21
t-51 9.5t-61 2h-136z" />
    <glyph glyph-name="rcaron" unicode="&#x159;" horiz-adv-x="355" 
d="M31 725h96l78 -54l80 54h96l-133 -116h-88zM340 443q-38 4 -51 4q-64 0 -95 -39t-31 -126v-282h-91v538h89v-94q42 94 152 97q17 0 27 -1v-97z" />
    <glyph glyph-name="Sacute" unicode="&#x15a;" horiz-adv-x="641" 
d="M364 773h-90l110 113h129zM318 738q105 0 180 -49t95 -149h-99q-17 58 -67.5 85t-112.5 27q-54 0 -104 -26t-50 -80q0 -85 118 -111l84 -19q39 -8 68.5 -17t64.5 -26t57.5 -38t38 -55t15.5 -76q0 -102 -80.5 -159.5t-195.5 -57.5q-127 0 -205.5 64t-92.5 174h100
q29 -152 200 -152q79 0 124 34t45 88q0 53 -40 82t-116 46l-90 19q-86 19 -142.5 67t-56.5 131q0 65 42 111.5t99.5 66.5t120.5 20z" />
    <glyph glyph-name="sacute" unicode="&#x15b;" horiz-adv-x="525" 
d="M295 609h-76l90 116h117zM380 381q-19 89 -127 89q-45 0 -79 -17t-34 -51q0 -57 82 -73l76 -15q40 -8 70.5 -19t57.5 -29t41.5 -46t14.5 -66q0 -77 -62 -122t-157 -45q-100 0 -161.5 55.5t-69.5 131.5h96q22 -110 137 -110q53 0 89 22t36 58q0 66 -109 89l-80 16
q-153 31 -153 149q0 69 61.5 109.5t153.5 40.5q86 0 142.5 -45t69.5 -122h-95z" />
    <glyph glyph-name="Scircumflex" unicode="&#x15c;" horiz-adv-x="641" 
d="M502 773h-107l-68 56l-68 -56h-107l135 113h83zM318 738q105 0 180 -49t95 -149h-99q-17 58 -67.5 85t-112.5 27q-54 0 -104 -26t-50 -80q0 -85 118 -111l84 -19q39 -8 68.5 -17t64.5 -26t57.5 -38t38 -55t15.5 -76q0 -102 -80.5 -159.5t-195.5 -57.5q-127 0 -205.5 64
t-92.5 174h100q29 -152 200 -152q79 0 124 34t45 88q0 53 -40 82t-116 46l-90 19q-86 19 -142.5 67t-56.5 131q0 65 42 111.5t99.5 66.5t120.5 20z" />
    <glyph glyph-name="scircumflex" unicode="&#x15d;" horiz-adv-x="525" 
d="M442 609h-96l-79 54l-79 -54h-96l132 116h89zM380 381q-19 89 -127 89q-45 0 -79 -17t-34 -51q0 -57 82 -73l76 -15q40 -8 70.5 -19t57.5 -29t41.5 -46t14.5 -66q0 -77 -62 -122t-157 -45q-100 0 -161.5 55.5t-69.5 131.5h96q22 -110 137 -110q53 0 89 22t36 58
q0 66 -109 89l-80 16q-153 31 -153 149q0 69 61.5 109.5t153.5 40.5q86 0 142.5 -45t69.5 -122h-95z" />
    <glyph glyph-name="Scedilla" unicode="&#x15e;" horiz-adv-x="641" 
d="M235 -136q30 -14 58 -14q61 0 61 32q0 30 -44 30q-25 0 -38 -9l-30 17l42 69q-107 11 -173 73.5t-79 162.5h100q29 -152 200 -152q79 0 124 34t45 88q0 53 -40 82t-116 46l-90 19q-86 19 -142.5 67t-56.5 131q0 65 42 111.5t99.5 66.5t120.5 20q105 0 180 -49t95 -149
h-99q-17 58 -67.5 85t-112.5 27q-54 0 -104 -26t-50 -80q0 -85 118 -111l84 -19q39 -8 68.5 -17t64.5 -26t57.5 -38t38 -55t15.5 -76q0 -100 -78.5 -157.5t-191.5 -59.5l-22 -35q15 3 30 3q36 0 56 -18.5t20 -49.5q0 -37 -33 -59.5t-75 -22.5q-54 0 -93 19z" />
    <glyph glyph-name="scedilla" unicode="&#x15f;" horiz-adv-x="525" 
d="M173 -136q30 -14 58 -14q61 0 61 32q0 30 -44 30q-25 0 -38 -9l-30 17l42 70q-83 11 -133 63.5t-57 120.5h96q22 -110 137 -110q53 0 89 22t36 58q0 66 -109 89l-80 16q-153 31 -153 149q0 69 61.5 109.5t153.5 40.5q86 0 142.5 -45t69.5 -122h-95q-19 89 -127 89
q-45 0 -79 -17t-34 -51q0 -57 82 -73l76 -15q40 -8 70.5 -19t57.5 -29t41.5 -46t14.5 -66q0 -75 -58.5 -119.5t-149.5 -47.5l-22 -35q15 3 30 3q36 0 56 -18.5t20 -49.5q0 -37 -33 -59.5t-75 -22.5q-54 0 -93 19z" />
    <glyph glyph-name="Scaron" unicode="&#x160;" horiz-adv-x="641" 
d="M152 886h107l67 -56l69 56h107l-135 -113h-84zM318 738q105 0 180 -49t95 -149h-99q-17 58 -67.5 85t-112.5 27q-54 0 -104 -26t-50 -80q0 -85 118 -111l84 -19q39 -8 68.5 -17t64.5 -26t57.5 -38t38 -55t15.5 -76q0 -102 -80.5 -159.5t-195.5 -57.5q-127 0 -205.5 64
t-92.5 174h100q29 -152 200 -152q79 0 124 34t45 88q0 53 -40 82t-116 46l-90 19q-86 19 -142.5 67t-56.5 131q0 65 42 111.5t99.5 66.5t120.5 20z" />
    <glyph glyph-name="scaron" unicode="&#x161;" horiz-adv-x="525" 
d="M92 725h96l78 -54l80 54h96l-133 -116h-88zM380 381q-19 89 -127 89q-45 0 -79 -17t-34 -51q0 -57 82 -73l76 -15q40 -8 70.5 -19t57.5 -29t41.5 -46t14.5 -66q0 -77 -62 -122t-157 -45q-100 0 -161.5 55.5t-69.5 131.5h96q22 -110 137 -110q53 0 89 22t36 58
q0 66 -109 89l-80 16q-153 31 -153 149q0 69 61.5 109.5t153.5 40.5q86 0 142.5 -45t69.5 -122h-95z" />
    <glyph glyph-name="uni0162" unicode="&#x162;" horiz-adv-x="574" 
d="M236 637h-236v88h574v-88h-236v-637h-102v637zM241 -36h95v-95l-44 -90h-54l39 96h-36v89z" />
    <glyph glyph-name="uni0163" unicode="&#x163;" horiz-adv-x="325" 
d="M98 673h91v-135h102v-73h-102v-319q0 -44 9.5 -57t46.5 -13h46v-76h-66q-78 0 -102.5 26t-24.5 109v330h-85v73h85v135zM106 -36h95v-95l-44 -90h-54l39 96h-36v89z" />
    <glyph glyph-name="Tcaron" unicode="&#x164;" horiz-adv-x="574" 
d="M112 886h107l67 -56l69 56h107l-135 -113h-84zM236 637h-236v88h574v-88h-236v-637h-102v637z" />
    <glyph glyph-name="tcaron" unicode="&#x165;" horiz-adv-x="358" 
d="M308 575h-58l30 150h98zM98 673h91v-135h102v-73h-102v-319q0 -44 9.5 -57t46.5 -13h46v-76h-66q-78 0 -102.5 26t-24.5 109v330h-85v73h85v135z" />
    <glyph glyph-name="Tbar" unicode="&#x166;" horiz-adv-x="573" 
d="M236 323h-151v90h151v224h-236v88h574v-88h-236v-224h151v-90h-151v-323h-102v323z" />
    <glyph glyph-name="tbar" unicode="&#x167;" horiz-adv-x="346" 
d="M109 673h91v-135h102v-73h-102v-83h102v-75h-102v-161q0 -44 9 -57t47 -13h46v-76h-66q-78 0 -102.5 26t-24.5 109v172h-85v75h85v83h-85v73h85v135z" />
    <glyph glyph-name="Utilde" unicode="&#x168;" horiz-adv-x="731" 
d="M491 885h71q-10 -59 -41.5 -86t-74.5 -27q-32 0 -74.5 23.5t-61.5 23.5q-40 0 -45 -44h-71q9 56 40 84t75 28q32 0 73 -23.5t62 -23.5q41 0 47 45zM177 725v-441q0 -108 43.5 -158.5t143.5 -50.5q101 0 145.5 54.5t44.5 165.5v430h102v-422q0 -162 -68.5 -239t-223.5 -77
q-153 0 -221 70.5t-68 237.5v430h102z" />
    <glyph glyph-name="utilde" unicode="&#x169;" horiz-adv-x="568" 
d="M400 725h71q-10 -58 -41.5 -85.5t-74.5 -27.5q-32 0 -74.5 24t-61.5 24q-40 0 -45 -44h-71q9 56 40 84t75 28q32 0 73 -24t62 -24q41 0 47 45zM405 77q-55 -90 -169 -90q-172 0 -172 207v344h91v-317q0 -35 4 -60t15 -48t34.5 -35t59.5 -12q65 0 101 45.5t36 130.5v296
h91v-538h-91v77z" />
    <glyph glyph-name="Umacron" unicode="&#x16a;" horiz-adv-x="731" 
d="M215 791v75h300v-75h-300zM177 725v-441q0 -108 43.5 -158.5t143.5 -50.5q101 0 145.5 54.5t44.5 165.5v430h102v-422q0 -162 -68.5 -239t-223.5 -77q-153 0 -221 70.5t-68 237.5v430h102z" />
    <glyph glyph-name="umacron" unicode="&#x16b;" horiz-adv-x="568" 
d="M133 635v75h300v-75h-300zM405 77q-55 -90 -169 -90q-172 0 -172 207v344h91v-317q0 -35 4 -60t15 -48t34.5 -35t59.5 -12q65 0 101 45.5t36 130.5v296h91v-538h-91v77z" />
    <glyph glyph-name="Ubreve" unicode="&#x16c;" horiz-adv-x="731" 
d="M523 886q-6 -55 -46 -87t-113 -32q-71 0 -110 32t-46 87h77q9 -58 80 -58q70 0 81 58h77zM177 725v-441q0 -108 43.5 -158.5t143.5 -50.5q101 0 145.5 54.5t44.5 165.5v430h102v-422q0 -162 -68.5 -239t-223.5 -77q-153 0 -221 70.5t-68 237.5v430h102z" />
    <glyph glyph-name="ubreve" unicode="&#x16d;" horiz-adv-x="568" 
d="M282 604q-77 0 -114.5 34.5t-42.5 86.5h71q3 -26 24.5 -43.5t62.5 -17.5t63 17.5t25 43.5h71q-6 -52 -43.5 -86.5t-116.5 -34.5zM405 77q-55 -90 -169 -90q-172 0 -172 207v344h91v-317q0 -35 4 -60t15 -48t34.5 -35t59.5 -12q65 0 101 45.5t36 130.5v296h91v-538h-91v77
z" />
    <glyph glyph-name="Uring" unicode="&#x16e;" horiz-adv-x="731" 
d="M456 850q0 -37 -26 -61t-65 -24q-38 0 -64 24.5t-26 60.5q0 37 26.5 61t63.5 24q38 0 64.5 -24t26.5 -61zM322 850q0 -18 13 -30t30 -12q18 0 30.5 12t12.5 30t-12.5 30.5t-30.5 12.5q-17 0 -30 -12.5t-13 -30.5zM177 725v-441q0 -108 43.5 -158.5t143.5 -50.5
q101 0 145.5 54.5t44.5 165.5v430h102v-422q0 -162 -68.5 -239t-223.5 -77q-153 0 -221 70.5t-68 237.5v430h102z" />
    <glyph glyph-name="uring" unicode="&#x16f;" horiz-adv-x="568" 
d="M374 685q0 -37 -26 -61t-65 -24q-38 0 -64 24.5t-26 60.5q0 37 26.5 61t63.5 24q38 0 64.5 -24t26.5 -61zM240 685q0 -18 13 -30t30 -12q18 0 30.5 12t12.5 30t-12.5 30.5t-30.5 12.5q-17 0 -30 -12.5t-13 -30.5zM405 77q-55 -90 -169 -90q-172 0 -172 207v344h91v-317
q0 -35 4 -60t15 -48t34.5 -35t59.5 -12q65 0 101 45.5t36 130.5v296h91v-538h-91v77z" />
    <glyph glyph-name="Uhungarumlaut" unicode="&#x170;" horiz-adv-x="731" 
d="M327 773h-90l110 113h129zM494 773h-90l110 113h129zM177 725v-441q0 -108 43.5 -158.5t143.5 -50.5q101 0 145.5 54.5t44.5 165.5v430h102v-422q0 -162 -68.5 -239t-223.5 -77q-153 0 -221 70.5t-68 237.5v430h102z" />
    <glyph glyph-name="uhungarumlaut" unicode="&#x171;" horiz-adv-x="568" 
d="M242 609h-76l90 116h117zM401 609h-77l91 116h116zM405 77q-55 -90 -169 -90q-172 0 -172 207v344h91v-317q0 -35 4 -60t15 -48t34.5 -35t59.5 -12q65 0 101 45.5t36 130.5v296h91v-538h-91v77z" />
    <glyph glyph-name="Uogonek" unicode="&#x172;" horiz-adv-x="731" 
d="M268 -93q0 46 50 82q-127 9 -185 80.5t-58 225.5v430h102v-441q0 -108 43.5 -158.5t143.5 -50.5q101 0 145.5 54.5t44.5 165.5v430h102v-422q0 -147 -52.5 -219.5t-183.5 -98.5q-27 -5 -48 -25t-21 -40q0 -23 13.5 -34t33.5 -11q22 0 41 9v-61q-25 -11 -60 -11
q-46 0 -78.5 23t-32.5 72z" />
    <glyph glyph-name="uogonek" unicode="&#x173;" horiz-adv-x="571" 
d="M405 77q-55 -90 -169 -90q-172 0 -172 207v344h91v-317q0 -35 4 -60t15 -48t34.5 -35t59.5 -12q65 0 101 45.5t36 130.5v296h91v-538h3q-98 -41 -98 -85q0 -39 55 -39q20 0 42 6v-61q-25 -9 -64 -9q-48 0 -82 21t-34 69q0 60 90 98h-3v77z" />
    <glyph glyph-name="Wcircumflex" unicode="&#x174;" horiz-adv-x="922" 
d="M636 773h-107l-68 56l-68 -56h-107l135 113h83zM665 116l134 609h107l-181 -725h-124l-140 596l-137 -596h-124l-184 725h112l140 -609l134 609h120z" />
    <glyph glyph-name="wcircumflex" unicode="&#x175;" horiz-adv-x="720" 
d="M530 609h-96l-79 54l-79 -54h-96l132 116h89zM313 538h94l107 -398l103 398h98l-155 -538h-83l-119 433l-115 -433h-83l-155 538h98l103 -398z" />
    <glyph glyph-name="Ycircumflex" unicode="&#x176;" horiz-adv-x="624" 
d="M487 773h-107l-68 56l-68 -56h-107l135 113h83zM112 725l198 -354l202 354h112l-266 -444v-281h-102v283l-256 442h112z" />
    <glyph glyph-name="ycircumflex" unicode="&#x177;" horiz-adv-x="466" 
d="M408 609h-96l-79 54l-79 -54h-96l132 116h89zM466 538l-192 -561q-30 -91 -65 -121.5t-122 -30.5h-47v76h37q51 0 73.5 15t39.5 73l4 11l-194 538h101l137 -415l133 415h95z" />
    <glyph glyph-name="Ydieresis" unicode="&#x178;" horiz-adv-x="624" 
d="M243 879v-99h-91v99h91zM473 879v-99h-92v99h92zM112 725l198 -354l202 354h112l-266 -444v-281h-102v283l-256 442h112z" />
    <glyph glyph-name="Zacute" unicode="&#x179;" horiz-adv-x="633" 
d="M367 773h-90l110 113h129zM588 637l-426 -549h442v-88h-563v88l427 549h-394v88h514v-88z" />
    <glyph glyph-name="zacute" unicode="&#x17a;" horiz-adv-x="488" 
d="M282 609h-76l90 116h117zM33 79l311 380h-291v79h397v-79l-310 -380h316v-79h-423v79z" />
    <glyph glyph-name="Zdotaccent" unicode="&#x17b;" horiz-adv-x="633" 
d="M380 880v-99h-91v99h91zM588 637l-426 -549h442v-88h-563v88l427 549h-394v88h514v-88z" />
    <glyph glyph-name="zdotaccent" unicode="&#x17c;" horiz-adv-x="488" 
d="M305 725v-99h-91v99h91zM33 79l311 380h-291v79h397v-79l-310 -380h316v-79h-423v79z" />
    <glyph glyph-name="Zcaron" unicode="&#x17d;" horiz-adv-x="633" 
d="M157 886h107l67 -56l69 56h107l-135 -113h-84zM588 637l-426 -549h442v-88h-563v88l427 549h-394v88h514v-88z" />
    <glyph glyph-name="zcaron" unicode="&#x17e;" horiz-adv-x="488" 
d="M89 725h96l78 -54l80 54h96l-133 -116h-88zM33 79l311 380h-291v79h397v-79l-310 -380h316v-79h-423v79z" />
    <glyph glyph-name="uni018F" unicode="&#x18f;" horiz-adv-x="764" 
d="M713 363q0 -169 -87.5 -272.5t-236.5 -103.5q-161 0 -247.5 110t-81.5 313h542q-11 112 -70 177t-148 65q-79 0 -136 -38t-80 -112h-102q28 110 112.5 173t203.5 63q156 0 243.5 -102.5t87.5 -272.5zM603 322h-439q5 -117 65.5 -183t151.5 -66q95 0 154.5 67t67.5 182z
" />
    <glyph glyph-name="Scommaaccent" unicode="&#x218;" horiz-adv-x="641" 
d="M318 738q105 0 180 -49t95 -149h-99q-17 58 -67.5 85t-112.5 27q-54 0 -104 -26t-50 -80q0 -85 118 -111l84 -19q39 -8 68.5 -17t64.5 -26t57.5 -38t38 -55t15.5 -76q0 -102 -80.5 -159.5t-195.5 -57.5q-127 0 -205.5 64t-92.5 174h100q29 -152 200 -152q79 0 124 34
t45 88q0 53 -40 82t-116 46l-90 19q-86 19 -142.5 67t-56.5 131q0 65 42 111.5t99.5 66.5t120.5 20zM273 -36h95v-95l-44 -90h-54l39 96h-36v89z" />
    <glyph glyph-name="scommaaccent" unicode="&#x219;" horiz-adv-x="525" 
d="M380 381q-19 89 -127 89q-45 0 -79 -17t-34 -51q0 -57 82 -73l76 -15q40 -8 70.5 -19t57.5 -29t41.5 -46t14.5 -66q0 -77 -62 -122t-157 -45q-100 0 -161.5 55.5t-69.5 131.5h96q22 -110 137 -110q53 0 89 22t36 58q0 66 -109 89l-80 16q-153 31 -153 149
q0 69 61.5 109.5t153.5 40.5q86 0 142.5 -45t69.5 -122h-95zM211 -36h95v-95l-44 -90h-54l39 96h-36v89z" />
    <glyph glyph-name="uni021A" unicode="&#x21a;" horiz-adv-x="574" 
d="M236 637h-236v88h574v-88h-236v-637h-102v637zM241 -36h95v-95l-44 -90h-54l39 96h-36v89z" />
    <glyph glyph-name="uni021B" unicode="&#x21b;" horiz-adv-x="325" 
d="M98 673h91v-135h102v-73h-102v-319q0 -44 9.5 -57t46.5 -13h46v-76h-66q-78 0 -102.5 26t-24.5 109v330h-85v73h85v135zM106 -36h95v-95l-44 -90h-54l39 96h-36v89z" />
    <glyph glyph-name="uni0232" unicode="&#x232;" horiz-adv-x="624" 
d="M162 791v75h300v-75h-300zM112 725l198 -354l202 354h112l-266 -444v-281h-102v283l-256 442h112z" />
    <glyph glyph-name="uni0233" unicode="&#x233;" horiz-adv-x="466" 
d="M83 635v75h300v-75h-300zM466 538l-192 -561q-30 -91 -65 -121.5t-122 -30.5h-47v76h37q51 0 73.5 15t39.5 73l4 11l-194 538h101l137 -415l133 415h95z" />
    <glyph glyph-name="uni0237" unicode="&#x237;" horiz-adv-x="235" 
d="M72 538h91v-565q0 -86 -25.5 -117t-101.5 -31h-46v76h26q35 0 45.5 13.5t10.5 56.5v567z" />
    <glyph glyph-name="uni0259" unicode="&#x259;" horiz-adv-x="581" 
d="M449 295q-3 82 -52 127t-114 45q-108 0 -147 -89h-94q20 74 83.5 121.5t157.5 47.5q124 0 194 -79t70 -202q0 -125 -74.5 -202t-186.5 -77q-121 0 -190.5 89t-60.5 219h414zM448 217h-317q2 -61 44 -106.5t111 -45.5q66 0 111 37.5t51 114.5z" />
    <glyph glyph-name="circumflex" unicode="&#x2c6;" horiz-adv-x="394" 
d="M372 609h-96l-79 54l-79 -54h-96l132 116h89z" />
    <glyph glyph-name="caron" unicode="&#x2c7;" horiz-adv-x="394" 
d="M22 725h96l78 -54l80 54h96l-133 -116h-88z" />
    <glyph glyph-name="breve" unicode="&#x2d8;" horiz-adv-x="361" 
d="M179 604q-77 0 -114.5 34.5t-42.5 86.5h71q3 -26 24.5 -43.5t62.5 -17.5t63 17.5t25 43.5h71q-6 -52 -43.5 -86.5t-116.5 -34.5z" />
    <glyph glyph-name="dotaccent" unicode="&#x2d9;" horiz-adv-x="135" 
d="M113 725v-99h-91v99h91z" />
    <glyph glyph-name="ring" unicode="&#x2da;" horiz-adv-x="225" 
d="M203 685q0 -37 -26 -61t-65 -24q-38 0 -64 24.5t-26 60.5q0 37 26.5 61t63.5 24q38 0 64.5 -24t26.5 -61zM69 685q0 -18 13 -30t30 -12q18 0 30.5 12t12.5 30t-12.5 30.5t-30.5 12.5q-17 0 -30 -12.5t-13 -30.5z" />
    <glyph glyph-name="ogonek" unicode="&#x2db;" horiz-adv-x="242" 
d="M203 0q-98 -41 -98 -85q0 -39 55 -39q20 0 42 6v-61q-25 -9 -64 -9q-48 0 -82 21t-34 69q0 60 90 98h91z" />
    <glyph glyph-name="tilde" unicode="&#x2dc;" horiz-adv-x="412" 
d="M319 725h71q-10 -58 -41.5 -85.5t-74.5 -27.5q-32 0 -74.5 24t-61.5 24q-40 0 -45 -44h-71q9 56 40 84t75 28q32 0 73 -24t62 -24q41 0 47 45z" />
    <glyph glyph-name="hungarumlaut" unicode="&#x2dd;" horiz-adv-x="409" 
d="M98 609h-76l90 116h117zM257 609h-77l91 116h116z" />
    <glyph glyph-name="uni0326" unicode="&#x326;" 
d="M-117 -36h95v-95l-44 -90h-54l39 96h-36v89z" />
    <glyph glyph-name="uni032C" unicode="&#x32c;" 
d="M-372 0h101l73 -71l75 71h101l-143 -138h-67z" />
    <glyph glyph-name="uni0394" unicode="&#x394;" horiz-adv-x="697" 
d="M349 727l354 -727h-708zM349 530l-213 -444h426z" />
    <glyph glyph-name="uni03A9" unicode="&#x3a9;" horiz-adv-x="794" 
d="M751 420q0 -93 -55.5 -171.5t-143.5 -106.5v-56h198v-86h-291v197q88 13 141.5 77.5t53.5 151.5q0 102 -72.5 167.5t-184.5 65.5t-184.5 -65.5t-72.5 -167.5q0 -87 53.5 -151.5t141.5 -77.5v-197h-291v86h198v56q-88 28 -143.5 106.5t-55.5 171.5q0 147 104 232.5
t250 85.5t250 -85.5t104 -232.5z" />
    <glyph glyph-name="pi" unicode="&#x3c0;" horiz-adv-x="647" 
d="M106 0v452h-74v86h576v-86h-76v-306q0 -43 10 -56t48 -13h24v-77h-44q-78 0 -103.5 26t-25.5 109v317h-243v-452h-92z" />
    <glyph glyph-name="uni0401" unicode="&#x401;" horiz-adv-x="638" 
d="M278 879v-99h-91v99h91zM508 879v-99h-92v99h92zM96 725h492v-88h-390v-220h367v-88h-367v-241h390v-88h-492v725z" />
    <glyph glyph-name="uni0402" unicode="&#x402;" horiz-adv-x="753" 
d="M321 0h-102v637h-219v88h581v-88h-260v-216q103 24 177 24q109 0 167 -58t58 -164q0 -64 -19.5 -111t-54 -73t-74.5 -38t-87 -12q-40 0 -90 10l10 85q36 -9 79 -9q64 2 101 36.5t37 106.5q0 73 -38 108t-106 35q-73 0 -160 -25v-336z" />
    <glyph glyph-name="uni0403" unicode="&#x403;" horiz-adv-x="548" 
d="M346 773h-90l110 113h129zM548 637h-350v-637h-102v725h452v-88z" />
    <glyph glyph-name="uni0404" unicode="&#x404;" horiz-adv-x="745" 
d="M715 241q-21 -117 -108 -185.5t-215 -68.5q-160 0 -250.5 103t-90.5 273q0 169 92.5 272t252.5 103q125 0 209.5 -69t106.5 -186h-102q-18 84 -77 126.5t-141 42.5q-95 0 -158 -64t-74 -174h341v-88h-342q7 -116 71 -184.5t163 -68.5q85 0 144.5 42.5t76.5 125.5h101z
" />
    <glyph glyph-name="uni0405" unicode="&#x405;" horiz-adv-x="641" 
d="M318 738q105 0 180 -49t95 -149h-99q-17 58 -67.5 85t-112.5 27q-54 0 -104 -26t-50 -80q0 -85 118 -111l84 -19q39 -8 68.5 -17t64.5 -26t57.5 -38t38 -55t15.5 -76q0 -102 -80.5 -159.5t-195.5 -57.5q-127 0 -205.5 64t-92.5 174h100q29 -152 200 -152q79 0 124 34
t45 88q0 53 -40 82t-116 46l-90 19q-86 19 -142.5 67t-56.5 131q0 65 42 111.5t99.5 66.5t120.5 20z" />
    <glyph glyph-name="uni0406" unicode="&#x406;" horiz-adv-x="294" 
d="M198 0h-102v725h102v-725z" />
    <glyph glyph-name="uni0407" unicode="&#x407;" horiz-adv-x="294" 
d="M78 879v-99h-91v99h91zM308 879v-99h-92v99h92zM198 0h-102v725h102v-725z" />
    <glyph glyph-name="uni0408" unicode="&#x408;" horiz-adv-x="571" 
d="M373 725h102v-495q0 -117 -60 -180t-168 -63t-167.5 60.5t-59.5 176.5h95q0 -73 37.5 -113.5t94.5 -40.5q53 0 89.5 36t36.5 125v494z" />
    <glyph glyph-name="uni0409" unicode="&#x409;" horiz-adv-x="1015" 
d="M30 0v88h15q28 0 49.5 24t35 63.5t23 100t14 123t7.5 143.5l5 183h435v-267h67q72 0 124.5 -10t96 -34t66 -70.5t22.5 -114.5q0 -67 -22.5 -113t-66 -71t-96 -35t-124.5 -10h-169v637h-236l-5 -126q-5 -123 -17.5 -213t-36.5 -159t-63 -104t-94 -35h-30zM614 88h71
q45 0 78 5.5t61.5 20.5t43.5 43.5t15 71.5t-15 72t-43.5 43.5t-61 20t-78.5 5.5h-71v-282z" />
    <glyph glyph-name="uni040A" unicode="&#x40a;" horiz-adv-x="1082" 
d="M748 458q72 0 124.5 -10t96 -34t66 -70.5t22.5 -114.5q0 -67 -22.5 -113t-66 -71t-96 -35t-124.5 -10h-189v329h-371v-329h-102v725h102v-308h371v308h102v-267h87zM752 88q45 0 78 5.5t61.5 20.5t43.5 43.5t15 71.5t-15 72t-43.5 43.5t-61 20t-78.5 5.5h-91v-282h91z
" />
    <glyph glyph-name="uni040B" unicode="&#x40b;" horiz-adv-x="782" 
d="M722 229v-229h-102v198q0 91 -36 125t-117 34q-62 0 -146 -21v-336h-102v637h-219v88h581v-88h-260v-218q104 26 176 26q115 0 170 -53t55 -163z" />
    <glyph glyph-name="uni040C" unicode="&#x40c;" horiz-adv-x="663" 
d="M349 773h-90l110 113h129zM274 330h-76v-330h-102v725h102v-307h73l244 307h123l-280 -343l290 -382h-122z" />
    <glyph glyph-name="uni040E" unicode="&#x40e;" horiz-adv-x="638" 
d="M519 886q-6 -55 -53 -88t-132 -33q-83 0 -128.5 33t-53.5 88h77q9 -60 106 -60q94 0 107 60h77zM111 -14v88h68q61 0 87 48l14 26l-270 577h110l211 -471l194 471h113l-267 -606q-61 -133 -185 -133h-75z" />
    <glyph glyph-name="uni040F" unicode="&#x40f;" horiz-adv-x="743" 
d="M420 -151h-96v151h-228v725h102v-637h347v637h102v-725h-227v-151z" />
    <glyph glyph-name="uni0410" unicode="&#x410;" horiz-adv-x="670" 
d="M274 725h118l273 -725h-110l-57 157h-333l-56 -157h-104zM196 244h270l-136 378z" />
    <glyph glyph-name="uni0411" unicode="&#x411;" horiz-adv-x="667" 
d="M198 439h170q124 0 191.5 -53t67.5 -161q0 -115 -70.5 -170t-193.5 -55h-267v725h487v-88h-385v-198zM364 88q75 0 116.5 35t41.5 101q0 70 -40.5 100.5t-121.5 30.5h-162v-267h166z" />
    <glyph glyph-name="uni0412" unicode="&#x412;" horiz-adv-x="684" 
d="M96 725h261q255 0 255 -179q0 -52 -21.5 -95t-58.5 -65q110 -46 110 -172q0 -109 -71.5 -161.5t-188.5 -52.5h-286v725zM198 415h175q136 0 136 117q0 54 -36.5 80.5t-99.5 26.5h-175v-224zM198 86h185q154 0 154 127q0 63 -39 92t-121 29h-179v-248z" />
    <glyph glyph-name="uni0413" unicode="&#x413;" horiz-adv-x="548" 
d="M548 637h-350v-637h-102v725h452v-88z" />
    <glyph glyph-name="uni0414" unicode="&#x414;" horiz-adv-x="750" 
d="M720 -151h-94v151h-507v-151h-94v239h31q110 0 116 425l3 212h457v-637h88v-239zM530 637h-257l-2 -157q-2 -142 -25.5 -242.5t-59.5 -149.5h344v549z" />
    <glyph glyph-name="uni0415" unicode="&#x415;" horiz-adv-x="638" 
d="M96 725h492v-88h-390v-220h367v-88h-367v-241h390v-88h-492v725z" />
    <glyph glyph-name="uni0416" unicode="&#x416;" horiz-adv-x="988" 
d="M443 330h-79l-228 -330h-121l260 381l-244 344h121l213 -307h78v307h102v-307h78l213 307h119l-243 -345l261 -380h-121l-226 330h-81v-330h-102v330z" />
    <glyph glyph-name="uni0417" unicode="&#x417;" horiz-adv-x="627" 
d="M585 205q0 -107 -79.5 -162t-196.5 -55q-114 0 -183 58t-91 162h100q13 -65 59.5 -99.5t121.5 -34.5q80 0 122.5 36t42.5 98q0 125 -164 125h-86v83h80q65 0 104 30t39 86q0 58 -37.5 89t-102.5 31q-63 0 -108 -38t-53 -108h-101q14 107 84.5 169.5t182.5 62.5
q102 0 170.5 -52.5t68.5 -142.5q0 -109 -101 -160q128 -38 128 -178z" />
    <glyph glyph-name="uni0418" unicode="&#x418;" horiz-adv-x="786" 
d="M588 576l-390 -576h-102v725h102v-575l390 575h102v-725h-102v576z" />
    <glyph glyph-name="uni0419" unicode="&#x419;" horiz-adv-x="786" 
d="M580 886q-6 -55 -53 -88t-132 -33q-83 0 -128.5 33t-53.5 88h77q9 -60 106 -60q94 0 107 60h77zM588 576l-390 -576h-102v725h102v-575l390 575h102v-725h-102v576z" />
    <glyph glyph-name="uni041A" unicode="&#x41a;" horiz-adv-x="663" 
d="M274 330h-76v-330h-102v725h102v-307h73l244 307h123l-280 -343l290 -382h-122z" />
    <glyph glyph-name="uni041B" unicode="&#x41b;" horiz-adv-x="730" 
d="M532 0v637h-256l-5 -126q-5 -123 -17.5 -213t-36.5 -159t-63 -104t-94 -35h-30v88h15q28 0 49.5 24t35 63.5t23 100t14 123t7.5 143.5l5 183h455v-725h-102z" />
    <glyph glyph-name="uni041C" unicode="&#x41c;" horiz-adv-x="904" 
d="M398 0l-200 632v-632h-102v725h171l185 -604l185 604h171v-725h-102v632l-200 -632h-108z" />
    <glyph glyph-name="uni041D" unicode="&#x41d;" horiz-adv-x="777" 
d="M681 725v-725h-102v329h-381v-329h-102v725h102v-308h381v308h102z" />
    <glyph glyph-name="uni041E" unicode="&#x41e;" horiz-adv-x="782" 
d="M391 -13q-155 0 -247.5 105t-92.5 271t92.5 270.5t247.5 104.5t247.5 -104.5t92.5 -270.5t-92.5 -271t-247.5 -105zM391 73q103 0 169.5 77t66.5 213t-66.5 212.5t-169.5 76.5t-169.5 -76.5t-66.5 -212.5t66.5 -213t169.5 -77z" />
    <glyph glyph-name="uni041F" unicode="&#x41f;" horiz-adv-x="758" 
d="M560 0v637h-362v-637h-102v725h566v-725h-102z" />
    <glyph glyph-name="uni0420" unicode="&#x420;" horiz-adv-x="639" 
d="M323 725q147 0 224 -47t77 -172q0 -66 -21.5 -110t-63.5 -67.5t-93.5 -32.5t-122.5 -9h-125v-287h-102v725h227zM198 639v-263h133q36 0 60.5 2t51 9.5t42 21t25.5 38t10 59.5q0 34 -10 59t-25.5 39t-41.5 22t-51 10.5t-61 2.5h-133z" />
    <glyph glyph-name="uni0421" unicode="&#x421;" horiz-adv-x="726" 
d="M694 231q-23 -117 -108 -180.5t-206 -63.5q-153 0 -241 104t-88 273t92 271.5t245 102.5q114 0 196.5 -65t105.5 -179h-99q-17 71 -70.5 114.5t-137.5 43.5q-100 0 -164 -76t-64 -212q0 -135 64 -213t167 -78q84 0 137.5 43t71.5 115h99z" />
    <glyph glyph-name="uni0422" unicode="&#x422;" horiz-adv-x="574" 
d="M236 637h-236v88h574v-88h-236v-637h-102v637z" />
    <glyph glyph-name="uni0423" unicode="&#x423;" horiz-adv-x="638" 
d="M111 -14v88h68q61 0 87 48l14 26l-270 577h110l211 -471l194 471h113l-267 -606q-61 -133 -185 -133h-75z" />
    <glyph glyph-name="uni0424" unicode="&#x424;" horiz-adv-x="825" 
d="M464 675q150 -7 236.5 -92t86.5 -220q0 -130 -86.5 -213.5t-236.5 -90.5v-85h-102v85q-150 6 -237 91t-87 217t87 216.5t237 91.5v90h102v-90zM362 590q-98 -6 -159 -65t-61 -160q0 -98 61 -156.5t159 -64.5v446zM464 144q97 6 158 64.5t61 156.5q0 100 -60.5 159
t-158.5 66v-446z" />
    <glyph glyph-name="uni0425" unicode="&#x425;" horiz-adv-x="686" 
d="M284 373l-251 352h121l191 -268l193 268h115l-251 -348l269 -377h-120l-210 293l-211 -293h-115z" />
    <glyph glyph-name="uni0426" unicode="&#x426;" horiz-adv-x="764" 
d="M734 -151h-94v151h-544v725h102v-637h347v637h102v-637h87v-239z" />
    <glyph glyph-name="uni0427" unicode="&#x427;" horiz-adv-x="694" 
d="M598 0h-102v284q-108 -23 -187 -23q-249 0 -249 221v243h102v-217q0 -87 43 -122t134 -35q75 0 157 19v355h102v-725z" />
    <glyph glyph-name="uni0428" unicode="&#x428;" horiz-adv-x="1040" 
d="M96 0v725h102v-637h266v637h102v-637h276v637h102v-725h-848z" />
    <glyph glyph-name="uni0429" unicode="&#x429;" horiz-adv-x="1062" 
d="M1032 -151h-96v151h-840v725h102v-637h267v637h101v-637h277v637h101v-637h88v-239z" />
    <glyph glyph-name="uni042A" unicode="&#x42a;" horiz-adv-x="739" 
d="M405 458q57 0 101.5 -6t84.5 -21t66.5 -40.5t41.5 -66t15 -95.5q0 -67 -22 -113t-65.5 -71t-96.5 -35t-125 -10h-196v637h-209v88h310v-267h95zM410 88q45 0 77.5 5.5t61 20.5t43.5 43.5t15 71.5t-14.5 72t-43.5 43.5t-61.5 20t-77.5 5.5h-100v-282h100z" />
    <glyph glyph-name="uni042B" unicode="&#x42b;" horiz-adv-x="892" 
d="M96 725h102v-267h87q72 0 124.5 -10t96 -34t66 -70.5t22.5 -114.5q0 -67 -22.5 -113t-66 -71t-96 -35t-124.5 -10h-189v725zM694 0v725h102v-725h-102zM289 88q45 0 78 5.5t61.5 20.5t43.5 43.5t15 71.5t-15 72t-43.5 43.5t-61 20t-78.5 5.5h-91v-282h91z" />
    <glyph glyph-name="uni042C" unicode="&#x42c;" horiz-adv-x="639" 
d="M96 725h102v-267h107q72 0 124.5 -10t96 -34t66 -70.5t22.5 -114.5q0 -67 -22.5 -113t-66 -71t-96 -35t-124.5 -10h-209v725zM309 88q45 0 78 5.5t61.5 20.5t43.5 43.5t15 71.5t-15 72t-43.5 43.5t-61 20t-78.5 5.5h-111v-282h111z" />
    <glyph glyph-name="uni042D" unicode="&#x42d;" horiz-adv-x="745" 
d="M352 73q99 0 163 68.5t71 184.5h-341v88h340q-11 110 -74 174t-158 64q-82 0 -141 -42.5t-77 -126.5h-102q22 117 106.5 186t209.5 69q160 0 252.5 -103t92.5 -272q0 -170 -90.5 -273t-250.5 -103q-128 0 -215 68.5t-108 185.5h101q17 -83 76.5 -125.5t144.5 -42.5z" />
    <glyph glyph-name="uni042E" unicode="&#x42e;" horiz-adv-x="1086" 
d="M1035 363q0 -169 -97 -272.5t-255 -103.5q-146 0 -237 94t-100 249h-148v-330h-102v725h102v-307h150q15 146 104.5 233t230.5 87q158 0 255 -103t97 -272zM931 363q0 136 -69.5 212.5t-178.5 76.5q-104 0 -169.5 -76.5t-65.5 -212.5q0 -137 65.5 -213.5t169.5 -76.5
q109 0 178.5 77t69.5 213z" />
    <glyph glyph-name="uni042F" unicode="&#x42f;" horiz-adv-x="692" 
d="M596 0h-102v272h-94q-36 0 -58 2l-180 -274h-118l196 298q-72 24 -114 75t-42 129q0 121 81.5 172t228.5 51h202v-725zM387 637q-97 0 -148 -29.5t-51 -108.5q0 -139 199 -139h107v277h-107z" />
    <glyph glyph-name="uni0430" unicode="&#x430;" horiz-adv-x="559" 
d="M40 142q0 46 24.5 79t76 54t112 33.5t151.5 22.5v13q0 69 -33.5 100t-88.5 31q-56 0 -88 -28.5t-35 -78.5h-94q6 83 69.5 132t146.5 49q111 0 163 -54t51 -168l-1 -124q-1 -125 14 -203h-92q-6 39 -7 74q-52 -87 -184 -87q-79 0 -132 41.5t-53 113.5zM411 259
q-67 -7 -112.5 -15t-83.5 -21t-56 -32.5t-18 -46.5q0 -39 28 -62t76 -23q72 0 119 39t47 127v34z" />
    <glyph glyph-name="uni0431" unicode="&#x431;" horiz-adv-x="576" 
d="M546 252q0 -125 -69.5 -195t-173.5 -70q-110 0 -181.5 76t-71.5 217v62q2 152 64.5 235.5t218.5 114.5l177 35v-81l-172 -37q-101 -22 -149.5 -68.5t-57.5 -143.5q26 54 76.5 82t111.5 28q97 0 162 -66.5t65 -188.5zM449 250q0 85 -40.5 131.5t-104.5 46.5
q-66 0 -111 -45.5t-45 -131.5q0 -85 43 -135t112 -50q67 0 106.5 49t39.5 135z" />
    <glyph glyph-name="uni0432" unicode="&#x432;" horiz-adv-x="559" 
d="M311 538q196 0 196 -137q0 -86 -75 -118q97 -28 97 -126q0 -80 -55 -118.5t-147 -38.5h-250v538h234zM305 312q53 0 80 17.5t27 61.5q0 39 -27.5 53.5t-82.5 14.5h-134v-147h137zM168 79h145q121 0 121 79q0 43 -30 61t-94 18h-142v-158z" />
    <glyph glyph-name="uni0433" unicode="&#x433;" horiz-adv-x="430" 
d="M168 459v-459h-91v538h343v-79h-252z" />
    <glyph glyph-name="uni0434" unicode="&#x434;" horiz-adv-x="595" 
d="M580 -119h-88v119h-394v-119h-88v198h24q46 0 70 66.5t31 219.5l7 173h363v-459h75v-198zM414 459h-184l-5 -103q-6 -117 -23.5 -181t-49.5 -96h262v380z" />
    <glyph glyph-name="uni0435" unicode="&#x435;" horiz-adv-x="582" 
d="M133 239q3 -82 52 -127t114 -45q108 0 147 89h94q-20 -74 -83.5 -121.5t-157.5 -47.5q-124 0 -194 79t-70 202q0 125 74.5 202t186.5 77q121 0 190.5 -89t60.5 -219h-414zM134 317h317q-2 61 -44 106.5t-111 45.5q-66 0 -111 -37.5t-51 -114.5z" />
    <glyph glyph-name="uni0436" unicode="&#x436;" horiz-adv-x="811" 
d="M801 0h-109l-162 238h-79v-238h-91v238h-76l-163 -238h-111l198 281l-180 257h106l150 -221h76v221h91v-221h76l151 221h105l-179 -254z" />
    <glyph glyph-name="uni0437" unicode="&#x437;" horiz-adv-x="505" 
d="M474 153q0 -82 -65 -124t-162 -42q-91 0 -153.5 44.5t-75.5 132.5h92q20 -101 143 -101q56 0 90 24t34 62q0 88 -117 88h-86v75h81q47 0 74 21.5t27 62.5q0 37 -29.5 55.5t-75.5 18.5q-114 0 -130 -98h-94q13 86 72.5 132t146.5 46q85 0 144.5 -39.5t59.5 -112.5
q0 -75 -85 -116q109 -33 109 -129z" />
    <glyph glyph-name="uni0438" unicode="&#x438;" horiz-adv-x="614" 
d="M446 406l-278 -406h-91v538h91v-406l278 406h91v-538h-91v406z" />
    </font>
</defs>
</svg>
